* Dettagli Torrent   globale  | Commenti (0) 


- Robbie Basho - Visions Of The Country (1978) [Flac] -



Download via torrent:
                 
Categoria bittorrent Musica
Descrizione
Robbie Basho - Visions Of The Country 1978          American Primitivism,  Avant-Folk

  All Tracks: Written-By Robbie Basho
A1 Green River Suite             7:46
A2 Rodeo                               2:32
A3 Rocky Mountain Raga   7:38
A4 Variations On Easter 4:01
A5 Blue Crystal Fire           4:49
B1 Orphan's Lament           3:46
B2 Leaf In The Wind             4:46
B3 Night Way                   6:14
B4 Elk Dreamer's Lament 4:14
B5 Call On The Wind               3:04    

Personnel:
Robbie Basho - 6-string guitar & voice, 12-string guitar (3, 9), piano (6, 7), whistling (7)
With:
Antoinette Marcus - violin (3)

Recorded at Recording Etc. Productions Berkeley, CA, 1977 & 1978
Except tracks B1-B3, recorded in 1973 & 1975 (Unknown location)
Originally released in 1978 by Windham Hill Records (US), LP - WHS C-1005

Vinyl Rip: Windham Hill WHS C-1005 (Original US pressing 197

Robbie Basho - Visions Of The Country (197

Media:
Original US LP pressing, Windham Hill, WHS-c 1005, Matrixes N/A

Equipment:
Vpi HW-17F Record Cleaning Machine
Technics SL 1210 Mk II
Rega RB 300 tonearm (Origin Live! mod)
Denon DL 304 M/C Cartridge
NAD 3101 (M/C phono section)
Outboard M-Audio Profire 610 Multichannel A/D
Adobe Audition 3.0

Method:
- Record cleaned on Vpi machine.
- Audio sampled at 96/32 float.
- Filter to roll-off frequencies below 20 HZ (only below audible frequencies).
Audio restoration:
- Manual declick and deglitch.
- Denoising treatments were not necessary.
- All whole sides normalized to 100% NEVER using compression or limiting.

Synopsis:
Original pressing in great condition - no real problems to report.
Euripides August 2011

===============================================================================
--------------------------------------------------------------------------------
Analyzed: Robbie Basho / Visions Of The Country
--------------------------------------------------------------------------------

DR         Peak         RMS     Duration Track
--------------------------------------------------------------------------------
DR12      -4.43 dB   -21.09 dB  7:50     ?-01 Green River Suite
DR13      -0.17 dB   -18.61 dB  2:37     ?-02 Rodeo
DR14      -1.69 dB   -21.98 dB  7:41     ?-03 Rocky Mountain Raga
DR12      -5.84 dB   -21.61 dB  4:04     ?-04 Variations On Easter
DR13      -5.29 dB   -23.14 dB  4:55     ?-05 Blue Crystal Fire
DR11      -4.63 dB   -18.98 dB  3:50     ?-06 Orphan's Lament
DR12      -6.61 dB   -23.32 dB  4:50     ?-07 Leaf in the Wind
DR13      -4.14 dB   -22.14 dB  6:17     ?-08 Night Way
DR14       0.00 dB   -17.24 dB  4:17     ?-09 Elk Dreamer's Lament
DR13      -2.10 dB   -20.00 dB  3:07     ?-10 Call on the Wind
--------------------------------------------------------------------------------

Number of tracks: 10
Maximum peak difference (0.00 dB - -6.61 dB): 6.61 dB

Official DR value (Song Mode): DR13
===============================================================================

THANKS TO Euripides and DarkAngie.
Info: Per scaricare devi usare un client come uTorrent, o Azureus
AnnounceURL
http://tracker.tntvillage.scambioetico.org:2710/announce
Hash 2b184228ad8112cf59f41efdeda3bb5c5769bab4
Peers seeds: 3 , leech: 2
Size 966.17 MB
Completato 31x
Aggiunto 02.02.15 - 17:02:25
Uploader   Mo_Yan
Votazione (Voti: 0)


Condividi questo bittorrent:


html/blog:


bbcode/forum:


Tramite bookmarks:



Aggiungi Commento