* Dettagli Torrent   globale  | Commenti (0) 


- I Puffi 2 (2013).BRrip.XviD - Italian English.Ac3 5.1 Sub Ita Eng MIRCrew -



Download via torrent:
                 
Categoria bittorrent DVDrip
Descrizione
The Smurfs 2 - I Puffi 2  (2013).BRrip.XviD - Italian English.Ac3 5.1 Sub Ita Eng MIRCrew

I Puffi 2 - The Smurfs 2 (2013).BRrip.XviD - Italian English.Ac3 5.1 Sub Ita Eng MIRCrew



[center]



NO FOUND ONLY ORIGINAL RELEASE

I Puffi 2 - The Smurfs 2 (2013)




 



Titolo originale The Smurfs 2
Lingua originale inglese
Paese di produzione USA
Anno 2013
Durata 105' minuti
Rapporto 2,35:1
Genere animazione, commedia
Regia Raja Gosnell
Soggetto Peyo (personaggi)
Sceneggiatura Karey Kirkpatrick, David Ronn, Jay Scherick, J. David Stem, David N. Weiss
Produttore Jordan Kerner, Benita Allen, Raphaël Benoliel
Produttore esecutivo Ben Haber, Paul Neesan, Ezra Swerdlow
Casa di produzione Sony Pictures Animation, Columbia Pictures, Kerner Entertainment Company, Hemisphere Media Capital
Art director Vincent Gingras-Liberali, Michele Laliberte, Emma Pucci
Fotografia Phil Meheux
Montaggio Sabrina Plisco
Effetti speciali Ryal Cosgrove, Seth William Meier, Luc Therrien
Musiche Heitor Pereira
Scenografia Bill Boes
Costumi Véronique Marchessault
Trucco Annick Chartier, Thi Thanh Tu Nguyen




   Neil Patrick Harris: Patrick Winslow
   Jayma Mays: Grace Winslow
   Hank Azaria: Gargamella
   Brendan Gleeson: Victor Doyle
   Nancy O'Dell: se stessa
   Erika Rosenbaum: mamma incinta

Doppiatori originali

   Jonathan Winters: Grande Puffo
   Katy Perry: Puffetta
   Anton Yelchin: Tontolone
   George Lopez: Brontolone
   John Oliver: Vanitoso
   Christina Ricci: Pestifera
   J. B. Smoove: Frullo
   Fred Armisen: Quattrocchi
   Alan Cumming: Coraggioso


.

Il malvagio mago Gargamella, rimasto bloccato nel mondo reale, si è trasferito a Parigi dove con la magia è diventato uno degli illusionisti più famosi del mondo. Le sue mire sono ormai quelle di conquistare l'intero pianeta, ma per farlo ha bisogno della magica essenza dei Puffi, che alimenta la sua bacchetta magica. Per farsi aiutare crea Pestifera e Frullo (Vexy e Hackus nell'originale), una coppia di piccole creature che chiama Monelli.......................



The Smurfs team up with their human friends to rescue Smurfette, who has been kidnapped by Gargamel since she knows a secret spell that can turn the evil sorcerer's newest creation ........


















[spoiler]
General
Complete name                            : I Puffi 2 - The Smurfs 2 (2013).ita.eng.sub.ita.eng.MIRcrew\I Puffi 2 - The Smurfs 2 (2013).ita.eng.sub.ita.eng.MIRcrew.avi
Format                                   : AVI
Format/Info                              : Audio Video Interleave
File size                                : 1.77 GiB
Duration                                 : 1h 44mn
Overall bit rate                         : 2 410 Kbps
Movie name                               : MIRCrew by robbyrs
Writing application                      : VirtualDubMod 1.5.10.2 (build 2540/release)
Writing library                          : VirtualDubMod build 2540/release

Video
ID                                       : 0
Format                                   : MPEG-4 Visual
Format profile                           : Simple@L3
Format settings, BVOP                    : No
Format settings, QPel                    : No
Format settings, GMC                     : No warppoints
Format settings, Matrix                  : Default (H.263)
Codec ID                                 : XVID
Codec ID/Hint                            : XviD
Duration                                 : 1h 44mn
Bit rate                                 : 1 500 Kbps
Width                                    : 720 pixels
Height                                   : 386 pixels
Display aspect ratio                     : 1.853
Frame rate                               : 23.976 fps
Color space                              : YUV
Chroma subsampling                       : 4:2:0
Bit depth                                : 8 bits
Scan type                                : Progressive
Compression mode                         : Lossy
Bits/(Pixel*Frame)                       : 0.225
Stream size                              : 1.10 GiB (62%)
Writing library                          : XviD 64

Audio #1
ID                                       : 1
Format                                   : AC-3
Format/Info                              : Audio Coding 3
Mode extension                           : CM (complete main)
Codec ID                                 : 2000
Duration                                 : 1h 44mn
Bit rate mode                            : Constant
Bit rate                                 : 448 Kbps
Channel(s)                               : 6 channels
Channel positions                        : Front: L C R, Side: L R, LFE
Sampling rate                            : 48.0 KHz
Bit depth                                : 16 bits
Compression mode                         : Lossy
Stream size                              : 336 MiB (19%)
Alignment                                : Split accross interleaves
Interleave, duration                     : 42 ms (1.00 video frame)
Interleave, preload duration             : 500 ms

Audio #2
ID                                       : 2
Format                                   : AC-3
Format/Info                              : Audio Coding 3
Mode extension                           : CM (complete main)
Codec ID                                 : 2000
Duration                                 : 1h 44mn
Bit rate mode                            : Constant
Bit rate                                 : 448 Kbps
Channel(s)                               : 6 channels
Channel positions                        : Front: L C R, Side: L R, LFE
Sampling rate                            : 48.0 KHz
Bit depth                                : 16 bits
Compression mode                         : Lossy
Stream size                              : 336 MiB (19%)
Alignment                                : Split accross interleaves
Interleave, duration                     : 42 ms (1.00 video frame)
Interleave, preload duration             : 500 ms




[/spoiler]

[/center]

&&e4t67uk
Info: Per scaricare devi usare un client come uTorrent, o Azureus
AnnounceURL
udp://open.demonii.com:1337/announce
Hash ee311d89f4fa5566a5cc263942d5a664bfa25600
Peers seeds: 13 , leech: 24
Size 1.77 GB
Completato 295x
Aggiunto 06.02.15 - 12:02:27
Uploader   robbyrs
Votazione (Voti: 0)


Condividi questo bittorrent:


html/blog:


bbcode/forum:


Tramite bookmarks:



Aggiungi Commento