* Dettagli Torrent   globale  | Commenti (0) 


- L Ape Maia Il Film (2014).BRrip.XviD - Italian .Ac3 5.1 Sub Ita NUita MIRCrew -



Download via torrent:
                 
Categoria bittorrent DVDrip
Descrizione
L'Ape Maia  Il Film (2014).BRrip.XviD - Italian .Ac3 5.1 Sub Ita NUita MIRCrew



[center]



NO FOUND ONLY ORIGINAL RELEASE

L'Ape Maia  Il Film (2014)




[URL=www.imdb.com/title/tt3336368][/URL]  



Titolo originale: Maya the Bee Movie
Nazione: Australia
Anno: 2014
Genere: Animazione
Durata: 79'
Regia: Alexs Stadermann, Simon Pickard

Produzione: Buzz Studios, Studio 100 Media
Distribuzione: Notorius Pictures
Data di uscita: 18 Settembre 2014 (cinema)



Kodi Smit-McPhee, Noah Taylor, Richard Roxburgh, Jacki Weaver, Miriam Margolyes, Justine Clarke, Andy McPhee, Coco Jack Gillies

.

Sullo sfondo di una lotta secolare tra api e vespe, la piccola e anticonformista Maia nasce in un alveare dove non Ŕ facile essere diversi. I suoi buffi sforzi per essere come gli altri e diventare una brava ape la mettono in conflitto con la malvagia consigliera dell'Ape Regina che nel frattempo sta organizzando un grosso furto di pappa reale. Quando Maia scoprirÓ il suo piano minaccioso, chiamerÓ a raccolta tutti gli insetti, comprese le temute vespe, che si riveleranno ottimi alleati...................



Freshly hatched bee Maya is a little whirlwind and won't follow the rules of the hive. One of these rules is not to trust the hornets that live beyond the meadow. When the Royal Jelly is stolen, the hornets are suspected and Maya is thought to be their accomplice........

















[spoiler]
General
Complete name                            : L'Ape Maia  Il Film (2014).ita.sub.NUita.MIRCrew\L'Ape Maia  Il Film (2014).ita.sub.NUita.MIRCrew.avi
Format                                   : AVI
Format/Info                              : Audio Video Interleave
File size                                : 1.21 GiB
Duration                                 : 1h 28mn
Overall bit rate                         : 1 957 Kbps
Movie name                               : MIRCrew by robbyrs
Writing application                      : VirtualDubMod 1.5.10.2 (build 2540/release)
Writing library                          : VirtualDubMod build 2540/release

Video
ID                                       : 0
Format                                   : MPEG-4 Visual
Format profile                           : Simple@L3
Format settings, BVOP                    : No
Format settings, QPel                    : No
Format settings, GMC                     : No warppoints
Format settings, Matrix                  : Default (H.263)
Codec ID                                 : XVID
Codec ID/Hint                            : XviD
Duration                                 : 1h 28mn
Bit rate                                 : 1 500 Kbps
Width                                    : 720 pixels
Height                                   : 386 pixels
Display aspect ratio                     : 1.853
Frame rate                               : 24.000 fps
Color space                              : YUV
Chroma subsampling                       : 4:2:0
Bit depth                                : 8 bits
Scan type                                : Progressive
Compression mode                         : Lossy
Bits/(Pixel*Frame)                       : 0.225
Stream size                              : 951 MiB (77%)
Writing library                          : XviD 64

Audio
ID                                       : 1
Format                                   : AC-3
Format/Info                              : Audio Coding 3
Mode extension                           : CM (complete main)
Codec ID                                 : 2000
Duration                                 : 1h 28mn
Bit rate mode                            : Constant
Bit rate                                 : 448 Kbps
Channel(s)                               : 6 channels
Channel positions                        : Front: L C R, Side: L R, LFE
Sampling rate                            : 48.0 KHz
Bit depth                                : 16 bits
Compression mode                         : Lossy
Stream size                              : 284 MiB (23%)
Alignment                                : Split accross interleaves
Interleave, duration                     : 42 ms (1.00 video frame)
Interleave, preload duration             : 500 ms


[/spoiler]

[/center]

&&e4t67uk
Info: Per scaricare devi usare un client come uTorrent, o Azureus
AnnounceURL
udp://open.demonii.com:1337/announce
Hash 9ab152e13c6a92f31b84b70172c75d258a3eb110
Peers seeds: 72 , leech: 57
Size 1.21 GB
Completato 1098x
Aggiunto 06.02.15 - 13:02:42
Uploader   robbyrs
Votazione (Voti: 0)


Condividi questo bittorrent:


html/blog:


bbcode/forum:


Tramite bookmarks:



Aggiungi Commento