* Dettagli Torrent   globale  | Commenti (0) 


- Potere Assoluto - Absolute Power (1997).BRrip.XviD - Italian English.Ac3 5.1 Sub Ita Eng MIRCrew -



Download via torrent:
                 
Categoria bittorrent DVDrip
Descrizione
Potere Assoluto - Absolute Power (1997).BRrip.XviD - Italian English.Ac3 5.1 Sub Ita Eng MIRCrew


[center]



NO FOUND ONLY ORIGINAL RELEASE

Potere Assoluto - Absolute Power (1997)




 



Titolo originale Absolute Power
Paese di produzione USA
Anno 1997
Durata 121 min
Colore colore
Audio sonoro
Genere drammatico, thriller
Regia Clint Eastwood
Soggetto David Baldacci
Sceneggiatura William Goldman
Produttore Clint Eastwood, Karen Spiegel
Casa di produzione Castle Rock Entertainment e Malpaso Productions
Distribuzione (Italia) Medusa Film
Fotografia Jack N. Green
Montaggio Joel Cox
Musiche Lennie Niehaus
Scenografia Henry Bumstead, Jack G. Taylor Jr., Richard C. Goddard, Anne D. McCulley





   Clint Eastwood: Luther Whitney
   Gene Hackman: Presidente Alan Richmond
   Ed Harris: Seth Frank
   Laura Linney: Kate Whitney
   Scott Glenn: Bill Burton
   Dennis Haysbert: Tim Collin
   Judy Davis: Gloria Russell
   E.G. Marshall: Walter Sullivan
   Melora Hardin: Christy Sullivan
   Penny Johnson Jerald: Laura Simon
   Richard Jenkins: Michael McCarty


.

Luther Whitney, ladro professionista, si introduce nella residenza di Walter Sullivan, un anziano filantropo considerato uno degli uomini pi ricchi e potenti degli Stati Uniti, per svuotargli il caveau..............................



Based on the novel by David Baldacci, Absolute Power is about the ruthlessness of people in power. The President believes that everything he does is beyond reproach, including an affair or two. That leads to murder and everyone around him is involved...................


















[spoiler]
General
Complete name                            : Potere Assoluto - Absolute Power (1997).ita.eng.sub.ita.eng.MIRcrew\Potere Assoluto - Absolute Power (1997).ita.eng.sub.ita.eng.MIRcrew.avi
Format                                   : AVI
Format/Info                              : Audio Video Interleave
Format profile                           : OpenDML
File size                                : 2.04 GiB
Duration                                 : 2h 1mn
Overall bit rate                         : 2 415 Kbps
Movie name                               : MIRCrew by robbyrs
Writing application                      : VirtualDubMod 1.5.10.2 (build 2540/release)
Writing library                          : VirtualDubMod build 2540/release

Video
ID                                       : 0
Format                                   : MPEG-4 Visual
Format profile                           : Simple@L3
Format settings, BVOP                    : No
Format settings, QPel                    : No
Format settings, GMC                     : No warppoints
Format settings, Matrix                  : Default (H.263)
Codec ID                                 : XVID
Codec ID/Hint                            : XviD
Duration                                 : 2h 1mn
Bit rate                                 : 1 500 Kbps
Width                                    : 716 pixels
Height                                   : 300 pixels
Display aspect ratio                     : 2.40:1
Frame rate                               : 23.976 fps
Color space                              : YUV
Chroma subsampling                       : 4:2:0
Bit depth                                : 8 bits
Scan type                                : Progressive
Compression mode                         : Lossy
Bits/(Pixel*Frame)                       : 0.291
Stream size                              : 1.27 GiB (62%)
Writing library                          : XviD 64

Audio #1
ID                                       : 1
Format                                   : AC-3
Format/Info                              : Audio Coding 3
Mode extension                           : CM (complete main)
Codec ID                                 : 2000
Duration                                 : 2h 1mn
Bit rate mode                            : Constant
Bit rate                                 : 448 Kbps
Channel(s)                               : 6 channels
Channel positions                        : Front: L C R, Side: L R, LFE
Sampling rate                            : 48.0 KHz
Bit depth                                : 16 bits
Compression mode                         : Lossy
Stream size                              : 388 MiB (19%)
Alignment                                : Split accross interleaves
Interleave, duration                     : 42 ms (1.00 video frame)
Interleave, preload duration             : 500 ms

Audio #2
ID                                       : 2
Format                                   : AC-3
Format/Info                              : Audio Coding 3
Mode extension                           : CM (complete main)
Codec ID                                 : 2000
Duration                                 : 2h 1mn
Bit rate mode                            : Constant
Bit rate                                 : 448 Kbps
Channel(s)                               : 6 channels
Channel positions                        : Front: L C R, Side: L R, LFE
Sampling rate                            : 48.0 KHz
Bit depth                                : 16 bits
Compression mode                         : Lossy
Stream size                              : 388 MiB (19%)
Alignment                                : Split accross interleaves
Interleave, duration                     : 42 ms (1.00 video frame)
Interleave, preload duration             : 500 ms






[/spoiler]

[/center]

&&e4t67uk
Info: Per scaricare devi usare un client come uTorrent, o Azureus
AnnounceURL
udp://open.demonii.com:1337/announce
Hash d927305a8a7ee3fcfa59c23b5182ef07b3bb0c97
Peers seeds: 21 , leech: 45
Size 2.05 GB
Completato 182x
Aggiunto 08.02.15 - 07:02:26
Uploader   robbyrs
Votazione (Voti: 0)


Condividi questo bittorrent:


html/blog:


bbcode/forum:


Tramite bookmarks:



Aggiungi Commento