* Dettagli Torrent   globale  | Commenti (2) 


- The Equalizer - Il Vendicatore (2014).BRrip.XviD - Italian English.Ac3 5.1 Sub Ita Eng MIRCrew -



Download via torrent:
                 
Categoria bittorrent DVDrip
Descrizione
The Equalizer - Il Vendicatore (2014).BRrip.XviD - Italian English.Ac3 5.1 Sub Ita Eng MIRCrew



[center]



NO FOUND ONLY ORIGINAL RELEASE

The Equalizer - Il Vendicatore (2014)




[URL=http://www.imdb.com/title/tt0455944/[/URL]  



Titolo originale    Prometheus
Paese di produzione    Stati Uniti d'America
Anno    2012
Durata    124 min
Rapporto    2,35 : 1
Genere    fantascienza, horror
Regia    Ridley Scott
Sceneggiatura    Jon Spaihts, Damon Lindelof
Produttore    Ridley Scott, Tony Scott, David Giler, Walter Hill
Produttore esecutivo    Michael Costigan, Michael Ellenberg, Damon Lindelof, Mark Huffam
Casa di produzione    Brandywine Productions, Dune Entertainment, Scott Free Productions
Distribuzione (Italia)    20th Century Fox
Fotografia    Dariusz Wolski
Montaggio    Pietro Scalia
Musiche    Marc Streitenfeld
Scenografia    Arthur Max




   Denzel Washington: Robert McCall
   Chlo Grace Moretz: Teri
   Marton Csokas: Teddy
   Melissa Leo: Susan Plummer
   Vladimir Kulich: Vladimir Pushkin
   Bill Pullman: Brian Plummer
   Haley Bennett: Mandy
   Matt Lasky: Marat
   Johnny Messner:
   Robert Wahlberg: Detective Harris
   David Meunier: Slavi
   Alex Veadov: Tevi
   David Harbour: Masters


.

Robert McCall un ufficiale dell'intelligence in pensione che, dopo aver finto la sua morte, decide di trascorrere una vita tranquilla a Boston. Quando per decide di aiutare una prostituta, Teri, entra nel mirino della mafia russa, e in particolare di Teddy, che tenta di eliminarlo attraverso agenti corrotti della polizia di Boston. Robert McCall quindi costretto a tornare in azione.......................



A man believes he has put his mysterious past behind him and has dedicated himself to beginning a new, quiet life. But when he meets a young girl under the control of ultra-violent Russian gangsters, he can't stand idly by - he has to help her...............




















[spoiler]
General
Complete name                            : The Equalizer (2014).ita.eng.sub.ita.eng.MIRcrew\The Equalizer (2014).ita.eng.sub.ita.eng.MIRcrew.avi
Format                                   : AVI
Format/Info                              : Audio Video Interleave
Format profile                           : OpenDML
File size                                : 2.09 GiB
Duration                                 : 2h 12mn
Overall bit rate                         : 2 263 Kbps
Movie name                               : MIRCrew by robbyrs
Writing application                      : VirtualDubMod 1.5.10.2 (build 2540/release)
Writing library                          : VirtualDubMod build 2540/release

Video
ID                                       : 0
Format                                   : MPEG-4 Visual
Format profile                           : Simple@L3
Format settings, BVOP                    : No
Format settings, QPel                    : No
Format settings, GMC                     : No warppoints
Format settings, Matrix                  : Default (H.263)
Codec ID                                 : XVID
Codec ID/Hint                            : XviD
Duration                                 : 2h 12mn
Bit rate                                 : 1 349 Kbps
Width                                    : 720 pixels
Height                                   : 300 pixels
Display aspect ratio                     : 2.40:1
Frame rate                               : 23.976 fps
Color space                              : YUV
Chroma subsampling                       : 4:2:0
Bit depth                                : 8 bits
Scan type                                : Progressive
Compression mode                         : Lossy
Bits/(Pixel*Frame)                       : 0.260
Stream size                              : 1.24 GiB (60%)
Writing library                          : XviD 64

Audio #1
ID                                       : 1
Format                                   : AC-3
Format/Info                              : Audio Coding 3
Mode extension                           : CM (complete main)
Codec ID                                 : 2000
Duration                                 : 2h 12mn
Bit rate mode                            : Constant
Bit rate                                 : 448 Kbps
Channel(s)                               : 6 channels
Channel positions                        : Front: L C R, Side: L R, LFE
Sampling rate                            : 48.0 KHz
Bit depth                                : 16 bits
Compression mode                         : Lossy
Stream size                              : 423 MiB (20%)
Alignment                                : Split accross interleaves
Interleave, duration                     : 42 ms (1.00 video frame)
Interleave, preload duration             : 500 ms

Audio #2
ID                                       : 2
Format                                   : AC-3
Format/Info                              : Audio Coding 3
Mode extension                           : CM (complete main)
Codec ID                                 : 2000
Duration                                 : 2h 12mn
Bit rate mode                            : Constant
Bit rate                                 : 448 Kbps
Channel(s)                               : 6 channels
Channel positions                        : Front: L C R, Side: L R, LFE
Sampling rate                            : 48.0 KHz
Bit depth                                : 16 bits
Compression mode                         : Lossy
Stream size                              : 423 MiB (20%)
Alignment                                : Split accross interleaves
Interleave, duration                     : 42 ms (1.00 video frame)
Interleave, preload duration             : 500 ms




[/spoiler]

[/center]

&&e4t67uk
Info: Per scaricare devi usare un client come uTorrent, o Azureus
AnnounceURL
udp://open.demonii.com:1337/announce
Hash 1fa8c28871632d92828067d19d463b00e506c661
Peers seeds: 216 , leech: 464
Size 2.09 GB
Completato 937x
Aggiunto 08.02.15 - 11:02:48
Uploader   robbyrs
Votazione (Voti: 1)


Condividi questo bittorrent:


html/blog:


bbcode/forum:


Tramite bookmarks:



Aggiungi Commento
Ultimi commenti
  
grazie
12/04 18.33
  
bello
12/04 18.26
Tutti commenti (2)