* Dettagli Torrent   globale  | Commenti (0) 


- Prometheus ITA ENG AC3 BDRip 1080p X265 ZMachine -



Download via torrent:
                 
Categoria bittorrent DVDrip
Descrizione






:: Scheda del film ::

Titolo Originale: Prometheus
NazionalitÓ: USA
Anno: 2012
Genere: Avventura, Fantascienza, Thriller
Regia: Ridley Scott
Durata: 124 Min

Cast:
Michael Fassbender, Idris Elba, Charlize Theron, Noomi Rapace, Guy Pearce, Logan Marshall-Green, Sean Harris, Rafe Spall, Emun Elliott, Benedict Wong, Kate Dickie, Patrick Wilson, Giannina Facio, Lucy Hutchinson, Branwell Donaghey, Vladimir Furdik, C.C. Smiff, Shane Steyn, Ian Whyte, John Lebar

:: Trama ::

Nell'anno 2093 l'astronave Prometheus giunge, dopo un lungo viaggio, sul pianeta LV-233. A bordo c'Ŕ un team assemblato da un ricco imprenditore con il compito di rintracciare gli "Ingegneri", una specie aliena umanoide che secondo due archeologi ha dato origine alla razza umana sulla Terra.

:: Screenshots ::








:: Mediainfo ::

General
Unique ID                                : 223423856353369608680214129513992695613 (0xA815DE99225BEFDC9FC97B0AE8162F3D)
Complete name                            : Z:\Backup Torrents\Alien PROPER\Prometheus.ITA.ENG.AC3.BDRip.1080p.X265_ZMachine.mkv
Format                                   : Matroska
Format version                           : Version 4 / Version 2
File size                                : 3.18 GiB
Duration                                 : 2h 3mn
Overall bit rate                         : 3 682 Kbps
Movie name                               : Prometheus - ZMachine
Encoded date                             : UTC 2015-01-01 16:47:19
Writing application                      : mkvmerge v7.2.0 ('On Every Street') 32bit built on Sep 13 2014 15:42:11
Writing library                          : libebml v1.3.0 + libmatroska v1.4.1

Video
ID                                       : 1
Format                                   : HEVC
Format/Info                              : High Efficiency Video Coding
Codec ID                                 : V_MPEGH/ISO/HEVC
Duration                                 : 2h 3mn
Bit rate                                 : 2 329 Kbps
Width                                    : 1 920 pixels
Height                                   : 800 pixels
Display aspect ratio                     : 2.40:1
Frame rate mode                          : Constant
Frame rate                               : 23.976 fps
Bits/(Pixel*Frame)                       : 0.063
Stream size                              : 2.01 GiB (63%)
Title                                    : Video H.265 (Encoded by ZMachine)
Default                                  : Yes
Forced                                   : Yes

Audio #1
ID                                       : 2
Format                                   : AC-3
Format/Info                              : Audio Coding 3
Mode extension                           : CM (complete main)
Format settings, Endianness              : Big
Codec ID                                 : A_AC3
Duration                                 : 2h 3mn
Bit rate mode                            : Constant
Bit rate                                 : 640 Kbps
Channel(s)                               : 6 channels
Channel positions                        : Front: L C R, Side: L R, LFE
Sampling rate                            : 48.0 KHz
Bit depth                                : 16 bits
Compression mode                         : Lossy
Stream size                              : 567 MiB (17%)
Title                                    : Audio AC3 5.1
Language                                 : Italian
Default                                  : Yes
Forced                                   : No

Audio #2
ID                                       : 3
Format                                   : AC-3
Format/Info                              : Audio Coding 3
Mode extension                           : CM (complete main)
Format settings, Endianness              : Big
Codec ID                                 : A_AC3
Duration                                 : 2h 3mn
Bit rate mode                            : Constant
Bit rate                                 : 640 Kbps
Channel(s)                               : 6 channels
Channel positions                        : Front: L C R, Side: L R, LFE
Sampling rate                            : 48.0 KHz
Bit depth                                : 16 bits
Compression mode                         : Lossy
Stream size                              : 567 MiB (17%)
Title                                    : Audio AC3 5.1
Language                                 : English
Default                                  : No
Forced                                   : No

Text #1
ID                                       : 4
Format                                   : ASS
Codec ID                                 : S_TEXT/ASS
Codec ID/Info                            : Advanced Sub Station Alpha
Compression mode                         : Lossless
Title                                    : Sub
Language                                 : Italian
Default                                  : No
Forced                                   : No

Text #2
ID                                       : 5
Format                                   : ASS
Codec ID                                 : S_TEXT/ASS
Codec ID/Info                            : Advanced Sub Station Alpha
Compression mode                         : Lossless
Title                                    : Sub
Language                                 : English
Default                                  : No
Forced                                   : No

Menu
00:00:00.000                             : Chapter 1
00:05:13.146                             : Chapter 2
00:07:44.881                             : Chapter 3
00:11:31.524                             : Chapter 4
00:15:09.783                             : Chapter 5
00:20:04.912                             : Chapter 6
00:22:32.809                             : Chapter 7
00:27:43.119                             : Chapter 8
00:31:57.832                             : Chapter 9
00:34:10.840                             : Chapter 10
00:37:53.229                             : Chapter 11
00:40:45.359                             : Chapter 12
00:45:49.329                             : Chapter 13
00:48:47.925                             : Chapter 14
00:50:23.061                             : Chapter 15
00:53:56.399                             : Chapter 16
00:56:32.222                             : Chapter 17
00:59:31.609                             : Chapter 18
01:01:29.185                             : Chapter 19
01:04:17.562                             : Chapter 20
01:06:01.457                             : Chapter 21
01:08:57.883                             : Chapter 22
01:11:13.519                             : Chapter 23
01:15:10.631                             : Chapter 24
01:17:06.038                             : Chapter 25
01:25:02.305                             : Chapter 26
01:27:09.349                             : Chapter 27
01:30:10.363                             : Chapter 28
01:32:43.724                             : Chapter 29
01:35:23.134                             : Chapter 30
01:37:46.861                             : Chapter 31
01:40:46.373                             : Chapter 32
01:43:46.220                             : Chapter 33
01:48:28.793                             : Chapter 34
01:52:08.096                             : Chapter 35
01:58:06.287                             : Chapter 36



Info: Per scaricare devi usare un client come uTorrent, o Azureus
AnnounceURL
http://tracker.tntvillage.scambioetico.org:2710/announce
Hash c6711fbfd05865da172bf4993596821fd56ac08c
Peers seeds: 58 , leech: 27
Size 3.18 GB
Completato 543x
Aggiunto 10.02.15 - 07:02:29
Uploader   ZMachine
Votazione (Voti: 0)


Condividi questo bittorrent:


html/blog:


bbcode/forum:


Tramite bookmarks:



Aggiungi Commento