* Dettagli Torrent   globale  | Commenti (0) 


- Questa è la mia vita (Godard, 1962) - BDmux 720p x264 - Ita Fra AC3 - Multisub - Orgazmo -



Download via torrent:
                 
Categoria bittorrent DVDrip
Descrizione
Questa e' la mia vita (1962)
(Versione Integrale)




Scheda del film

Titolo originale Vivre sa vie: Film en douze tableaux
Nazionalit Francia
Anno 1962
Durata 85'
Genere Drammatico
Regia Jean-Luc Godard

Cast:
Anna Karina, Sady Rebbot, Gilles Queant, Andr S. Labarthe,
Guylaine Schlumberger, Grard Hoffman, Monique Messine,
Paul Pavel, Dimitri Dineff, Peter Kassovitz, Eric Schlumberger,
Brice Parain, Henri Attal, Odile Geoffroy, Marcel Charton.

Trama

Nan, una commessa parigina, che non sapendo come pagare l'affitto, decide di fare la prostituta.
La voglia di tornare a fare una vita normale grande, ma Nan costretta a fare i conti con il suo protettore che non ne vuole sapere di lasciarla libera.
Anzi il losco individuo cerca di venderla a un altro suo "collega".

Il film nasce da un'inchiesta giornalistica "Dove va la prostituzione?" firmata da Marcel Sacotte. Godard divide la storia di Nan in dodici quadri introdotti da una citazione del "Ritratto ovale" di Edgar Allan Poe. Premio speciale della giuria al festival di Venezia, uno dei capolavori del Godard prima maniera, uno dei punti di maggior equilibrio tra l'esplosione del linguaggio tradizionale e il confronto critico con la realt contemporanea.

IL FILM CONTIENE ALCUNE SEQUENZE (6 minuti circa) IN LINGUA FRANCESE CON SOTTOTITOLI IN ITALIANO


Screenshoots




Report del file

General
Unique ID: 240270437090621832909380442717829826875 (0xB4C2672804BC44B3F8068FE420B5893B)
Complete name: Questa è la mia vita (Godard, 1962) - Ita Fra AC3 - Multisub - Orgazmo.mkv
Format: Matroska
Format version: Version 4 / Version 2
File size: 4.48 GiB
Duration: 1h 23mn
Overall bit rate: 7 657 Kbps
Movie name: Questa la mia vita (Jean-Luc Godard, 1962) - Orgazmo
Encoded date: UTC 2014-11-11 11:47:38
Writing application: mkvmerge v6.2.0 ('Promised Land') built on Apr 28 2013 18:50:30
Writing library: libebml v1.3.0 + libmatroska v1.4.0

Video
ID: 1
Format: AVC
Format/Info: Advanced Video Codec
Format profile: [email protected]
Format settings, CABAC: Yes
Format settings, ReFrames: 5 frames
Codec ID: V_MPEG4/ISO/AVC
Duration: 1h 23mn
Bit rate: 7 272 Kbps
Width: 960 pixels
Height: 720 pixels
Display aspect ratio: 4:3
Frame rate mode: Constant
Frame rate: 23.976 fps
Color space: YUV
Chroma subsampling: 4:2:0
Bit depth: 8 bits
Scan type: Progressive
Bits/(Pixel*Frame): 0.439
Stream size: 4.17 GiB (93%)
Title: Questa la mia vita (Jean-Luc Godard, 1962)
Writing library: x264 core 93 r1538 bd72d46
Encoding settings: cabac=1 / ref=5 / deblock=1:0:0 / analyse=0x3:0x113 / me=umh / subme=7 / psy=1 /
psy_rd=1.00:0.00 / mixed_ref=1 / me_range=16 / chroma_me=1 / trellis=1 / 8x8dct=1 / cqm=0 /
deadzone=21,11 / fast_pskip=0 / chroma_qp_offset=-2 / threads=12 / sliced_threads=0 / nr=0 /
decimate=1 / interlaced=0 / constrained_intra=0 / bframes=3 / b_pyramid=2 / b_adapt=1 / b_bias=0 /
direct=1 / wpredb=1 / wpredp=2 / keyint=250 / keyint_min=25 / scenecut=40 / intra_refresh=0 /
rc_lookahead=40 / rc=2pass / mbtree=1 / bitrate=7272 / ratetol=1.0 / qcomp=0.60 / qpmin=10 /
qpmax=51 / qpstep=4 / cplxblur=20.0 / qblur=0.5 / ip_ratio=1.40 / aq=1:1.00
Language: French
Default: Yes
Forced: No

Audio #1
ID: 2
Format: AC-3
Format/Info: Audio Coding 3
Mode extension: CM (complete main)
Format settings, Endianness: Big
Codec ID: A_AC3
Duration: 1h 23mn
Bit rate mode: Constant
Bit rate: 192 Kbps
Channel count: 2 channels
Channel positions: Front: L R
Sampling rate: 48.0 KHz
Bit depth: 16 bits
Compression mode: Lossy
Stream size: 115 MiB (3%)
Title: Italiano AC3 1.0 192Kbps
Language: Italian
Default: Yes
Forced: No

Audio #2
ID: 3
Format: AC-3
Format/Info: Audio Coding 3
Mode extension: CM (complete main)
Format settings, Endianness: Big
Codec ID: A_AC3
Duration: 1h 23mn
Bit rate mode: Constant
Bit rate: 192 Kbps
Channel count: 1 channel
Channel positions: Front: C
Sampling rate: 48.0 KHz
Bit depth: 16 bits
Compression mode: Lossy
Stream size: 115 MiB (3%)
Title: Franais AC3 1.0 192Kbps
Language: French
Default: No
Forced: No

Text #1
ID: 4
Format: UTF-8
Codec ID: S_TEXT/UTF8
Codec ID/Info: UTF-8 Plain Text
Title: Italiano (Forced)
Language: Italian
Default: Yes
Forced: Yes

Text #2
ID: 5
Format: UTF-8
Codec ID: S_TEXT/UTF8
Codec ID/Info: UTF-8 Plain Text
Title: Italiano
Language: Italian
Default: No
Forced: No

Text #3
ID: 6
Format: UTF-8
Codec ID: S_TEXT/UTF8
Codec ID/Info: UTF-8 Plain Text
Title: English
Language: English
Default: No
Forced: No

Text #4
ID: 7
Format: UTF-8
Codec ID: S_TEXT/UTF8
Codec ID/Info: UTF-8 Plain Text
Title: Deutsch
Language: German
Default: No
Forced: No

Text #5
ID: 8
Format: UTF-8
Codec ID: S_TEXT/UTF8
Codec ID/Info: UTF-8 Plain Text
Title: Espaol
Language: Spanish
Default: No
Forced: No

Text #6
ID: 9
Format: UTF-8
Codec ID: S_TEXT/UTF8
Codec ID/Info: UTF-8 Plain Text
Title: Portugus (Brazilian)
Language: Portuguese
Default: No
Forced: No

Text #7
ID: 10
Format: UTF-8
Codec ID: S_TEXT/UTF8
Codec ID/Info: UTF-8 Plain Text
Title: Četina
Language: Czech
Default: No
Forced: No




Info: Per scaricare devi usare un client come uTorrent, o Azureus
AnnounceURL
http://tracker.tntvillage.scambioetico.org:2710/announce
Hash e809e04fd48fcec4ee4aca505ce4dcacecd27cc3
Peers seeds: 1 , leech: 108
Size 4.48 GB
Completato 0x
Aggiunto 10.02.15 - 10:02:49
Uploader   Orgazmo
Votazione (Voti: 0)


Condividi questo bittorrent:


html/blog:


bbcode/forum:


Tramite bookmarks:



Aggiungi Commento