* Dettagli Torrent   globale  | Commenti (0) 


- Prometheus 2012 ITA ENG DTS BDRip 1080p X264 ZMachine -



Download via torrent:
                 
Categoria bittorrent DVDrip
Descrizione




:: Scheda del film ::

Titolo Originale: Prometheus
NazionalitÓ: USA
Anno: 2012
Genere: Avventura, Fantascienza, Thriller
Regia: Ridley Scott
Durata: 124 Min

Cast:
Michael Fassbender, Idris Elba, Charlize Theron, Noomi Rapace, Guy Pearce, Logan Marshall-Green, Sean Harris, Rafe Spall, Emun Elliott, Benedict Wong, Kate Dickie, Patrick Wilson, Giannina Facio, Lucy Hutchinson, Branwell Donaghey, Vladimir Furdik, C.C. Smiff, Shane Steyn, Ian Whyte, John Lebar

:: Trama ::

Nell'anno 2093 l'astronave Prometheus giunge, dopo un lungo viaggio, sul pianeta LV-233. A bordo c'Ŕ un team assemblato da un ricco imprenditore con il compito di rintracciare gli "Ingegneri", una specie aliena umanoide che secondo due archeologi ha dato origine alla razza umana sulla Terra.

:: Screenshots ::








:: Mediainfo ::

General
Unique ID                                : 195429337576697680682011168251039689861 (0x930652425C253773923D63FFF663AC85)
Complete name                            : Z:\Backup Torrents\Alien PROPER\Prometheus.2012.ITA.ENG.DTS.BDRip.1080p.X264_ZMachine.mkv
Format                                   : Matroska
Format version                           : Version 4 / Version 2
File size                                : 7.48 GiB
Duration                                 : 2h 3mn
Overall bit rate mode                    : Variable
Overall bit rate                         : 8 650 Kbps
Movie name                               : Prometheus - ZMachine
Encoded date                             : UTC 2015-01-22 11:44:49
Writing application                      : mkvmerge v7.2.0 ('On Every Street') 32bit built on Sep 13 2014 15:42:11
Writing library                          : libebml v1.3.0 + libmatroska v1.4.1

Video
ID                                       : 1
Format                                   : AVC
Format/Info                              : Advanced Video Codec
Format profile                           : [email protected]
Format settings, CABAC                   : Yes
Format settings, ReFrames                : 5 frames
Codec ID                                 : V_MPEG4/ISO/AVC
Duration                                 : 2h 3mn
Width                                    : 1 920 pixels
Height                                   : 800 pixels
Display aspect ratio                     : 2.40:1
Frame rate mode                          : Constant
Frame rate                               : 23.976 fps
Color space                              : YUV
Chroma subsampling                       : 4:2:0
Bit depth                                : 8 bits
Scan type                                : Progressive
Title                                    : Video H.264 (Encoded by ZMachine)
Writing library                          : x264 core 142 r2431 ac76440
Encoding settings                        : cabac=1 / ref=5 / deblock=1:-1:-1 / analyse=0x3:0x133 / me=umh / subme=10 / psy=1 / psy_rd=1.00:0.15 / mixed_ref=1 / me_range=24 / chroma_me=1 / trellis=2 / 8x8dct=1 / cqm=0 / deadzone=21,11 / fast_pskip=1 / chroma_qp_offset=-3 / threads=30 / lookahead_threads=5 / sliced_threads=0 / nr=0 / decimate=1 / interlaced=0 / bluray_compat=0 / constrained_intra=0 / bframes=8 / b_pyramid=2 / b_adapt=2 / b_bias=0 / direct=3 / weightb=1 / open_gop=0 / weightp=2 / keyint=240 / keyint_min=23 / scenecut=40 / intra_refresh=0 / rc_lookahead=60 / rc=crf / mbtree=1 / crf=19.0 / qcomp=0.60 / qpmin=0 / qpmax=30 / qpstep=4 / vbv_maxrate=28000 / vbv_bufsize=27000 / crf_max=0.0 / nal_hrd=none / filler=0 / ip_ratio=1.40 / aq=1:1.00
Default                                  : Yes
Forced                                   : No

Audio #1
ID                                       : 2
Format                                   : DTS
Format/Info                              : Digital Theater Systems
Mode                                     : 16
Format settings, Endianness              : Big
Codec ID                                 : A_DTS
Duration                                 : 2h 3mn
Bit rate mode                            : Constant
Bit rate                                 : 768 Kbps
Channel(s)                               : 6 channels
Channel positions                        : Front: L C R, Side: L R, LFE
Sampling rate                            : 48.0 KHz
Bit depth                                : 24 bits
Compression mode                         : Lossy
Stream size                              : 680 MiB (9%)
Title                                    : Audio DTS 5.1
Language                                 : Italian
Default                                  : Yes
Forced                                   : No

Audio #2
ID                                       : 3
Format                                   : DTS
Format/Info                              : Digital Theater Systems
Format profile                           : MA / Core
Mode                                     : 16
Format settings, Endianness              : Big
Codec ID                                 : A_DTS
Duration                                 : 2h 3mn
Bit rate mode                            : Variable
Bit rate                                 : Unknown / 768 Kbps
Channel(s)                               : 8 channels / 6 channels
Channel positions                        : Front: L C R, Side: L R, Back: L R, LFE / Front: L C R, Side: L R, LFE
Sampling rate                            : 48.0 KHz
Bit depth                                : 16 bits
Compression mode                         : Lossless / Lossy
Title                                    : Audio DTS-HD MA 7.1
Language                                 : English
Default                                  : No
Forced                                   : No

Audio #3
ID                                       : 4
Format                                   : AC-3
Format/Info                              : Audio Coding 3
Mode extension                           : CM (complete main)
Format settings, Endianness              : Big
Codec ID                                 : A_AC3
Duration                                 : 2h 3mn
Bit rate mode                            : Constant
Bit rate                                 : 224 Kbps
Channel(s)                               : 2 channels
Channel positions                        : Front: L R
Sampling rate                            : 48.0 KHz
Bit depth                                : 16 bits
Compression mode                         : Lossy
Stream size                              : 198 MiB (3%)
Title                                    : Director's Commentary
Language                                 : English
Default                                  : No
Forced                                   : No

Audio #4
ID                                       : 5
Format                                   : AC-3
Format/Info                              : Audio Coding 3
Mode extension                           : CM (complete main)
Format settings, Endianness              : Big
Codec ID                                 : A_AC3
Duration                                 : 2h 3mn
Bit rate mode                            : Constant
Bit rate                                 : 224 Kbps
Channel(s)                               : 2 channels
Channel positions                        : Front: L R
Sampling rate                            : 48.0 KHz
Bit depth                                : 16 bits
Compression mode                         : Lossy
Stream size                              : 198 MiB (3%)
Title                                    : Author Commentary
Language                                 : English
Default                                  : No
Forced                                   : No

Text #1
ID                                       : 6
Format                                   : ASS
Codec ID                                 : S_TEXT/ASS
Codec ID/Info                            : Advanced Sub Station Alpha
Compression mode                         : Lossless
Title                                    : Sub
Language                                 : Italian
Default                                  : No
Forced                                   : No

Text #2
ID                                       : 7
Format                                   : ASS
Codec ID                                 : S_TEXT/ASS
Codec ID/Info                            : Advanced Sub Station Alpha
Compression mode                         : Lossless
Title                                    : Sub
Language                                 : English
Default                                  : No
Forced                                   : No

Text #3
ID                                       : 8
Format                                   : ASS
Codec ID                                 : S_TEXT/ASS
Codec ID/Info                            : Advanced Sub Station Alpha
Compression mode                         : Lossless
Title                                    : Sub Director's Commentary
Language                                 : Italian
Default                                  : No
Forced                                   : No

Text #4
ID                                       : 9
Format                                   : ASS
Codec ID                                 : S_TEXT/ASS
Codec ID/Info                            : Advanced Sub Station Alpha
Compression mode                         : Lossless
Title                                    : Sub Author's Commentary
Language                                 : Italian
Default                                  : No
Forced                                   : No

Menu
00:00:00.000                             : en:Chapter 1
00:05:13.146                             : en:Chapter 2
00:07:44.881                             : en:Chapter 3
00:11:31.524                             : en:Chapter 4
00:15:09.783                             : en:Chapter 5
00:20:04.912                             : en:Chapter 6
00:22:32.809                             : en:Chapter 7
00:27:43.119                             : en:Chapter 8
00:31:57.832                             : en:Chapter 9
00:34:10.840                             : en:Chapter 10
00:37:53.229                             : en:Chapter 11
00:40:45.359                             : en:Chapter 12
00:45:49.329                             : en:Chapter 13
00:48:47.925                             : en:Chapter 14
00:50:23.061                             : en:Chapter 15
00:53:56.399                             : en:Chapter 16
00:56:32.222                             : en:Chapter 17
00:59:31.609                             : en:Chapter 18
01:01:29.185                             : en:Chapter 19
01:04:17.562                             : en:Chapter 20
01:06:01.457                             : en:Chapter 21
01:08:57.883                             : en:Chapter 22
01:11:13.519                             : en:Chapter 23
01:15:10.631                             : en:Chapter 24
01:17:06.038                             : en:Chapter 25
01:25:02.305                             : en:Chapter 26
01:27:09.349                             : en:Chapter 27
01:30:10.363                             : en:Chapter 28
01:32:43.724                             : en:Chapter 29
01:35:23.134                             : en:Chapter 30
01:37:46.861                             : en:Chapter 31
01:40:46.373                             : en:Chapter 32
01:43:46.220                             : en:Chapter 33
01:48:28.793                             : en:Chapter 34
01:52:08.096                             : en:Chapter 35
01:58:06.287                             : en:Chapter 36
Info: Per scaricare devi usare un client come uTorrent, o Azureus
AnnounceURL
http://tracker.tntvillage.scambioetico.org:2710/announce
Hash a0f13a9cc560673ea188d1a9f0a3051e3363d945
Peers seeds: 59 , leech: 63
Size 5.90 GB
Completato 288x
Aggiunto 11.02.15 - 07:02:23
Uploader   ZMachine
Votazione (Voti: 0)


Condividi questo bittorrent:


html/blog:


bbcode/forum:


Tramite bookmarks:



Aggiungi Commento