* Dettagli Torrent   globale  | Commenti (0) 


- Predator Ultimate Hunter Edition ITA ENG AC3 BDRip 1080p X265 ZMachine -



Download via torrent:
                 
Categoria bittorrent DVDrip
Descrizione







:: Scheda del Film ::

Titolo Originale: Predator
NazionalitÓ: USA
Anno: 1987
Genere: Action, Sci-Fi, Thriller
Regia: John McTiernan
Durata: 107 Min

Cast:
Arnold Schwarzenegger, Carl Weathers, Elpidia Carrillo, Bill Duke, Jesse Ventura, Sonny Landham, Richard Chaves, R.G. Armstrong, Shane Black, Kevin Peter Hall

:: Trama ::

Un elicottero che reca a bordo un ministro viene abbattuto nella giungla da un gruppo di guerriglieri di un Paese dell'America centrale, desiderosi di catturare ostaggi. Dillon, un agente della CIA, ingaggia il maggiore Dutch Schaefer, un ex-collega, il quale capeggia alcuni professionisti dell'avventura, che con lui eseguono normalmente rischiose operazioni. Dutch accetta e raggiunge con i suoi la zona del sequestro, anche perchŔ gli preme di recuperare in particolare un amico, Hopper, l'elicotterista abbattuto. Il commando non impiega molto tempo ad eliminare i guerriglieri e a scoprire il corpo di Hooper barbaramente seviziato e squartato. Poi ad uno ad uno cadono i compagni di Dutch, con i volti sfigurati da unghiate terribili: nella giungla sembra aggirarsi un mostro misterioso e inafferrabile. Resta solo Dutch a lottare contro l'orrenda creatura, venuta dagli spazi siderali, un essere imprendibile che, sulle prime, si manifesta come una lievissima nube di scintille fluttuanti fra liane ed alberi, per poi sparire di colpo e annidarsi in vetta a questi ultimi. Inseguita per˛ dal tenacissimo maggiore, alla fine la nube si fa corpo, con le fattezze di un essere ripugnante il quale, impegnata con il Nostro una lotta mortale, finisce con l'autodistruggersi.

:: Screenshots ::








:: Mediainfo ::

General
Unique ID                                : 214208216905727881111099941143795926004 (0xA127007E4DF3CEA082384913EE6303F4)
Complete name                            : D:\Predator\Predator.Ultimate.Hunter.Edition.ITA.ENG.AC3.BDRip.1080p.X265_ZMachine.mkv
Format                                   : Matroska
Format version                           : Version 4 / Version 2
File size                                : 4.45 GiB
Duration                                 : 1h 46mn
Overall bit rate                         : 5 983 Kbps
Movie name                               : Predator - Ultimate Hunter Edition <ZMachine>
Encoded date                             : UTC 2015-02-11 09:59:48
Writing application                      : mkvmerge v7.5.0 ('Glass Culture') 64bit built on Jan  4 2015 16:48:44
Writing library                          : libebml v1.3.1 + libmatroska v1.4.2

Video
ID                                       : 1
Format                                   : HEVC
Format/Info                              : High Efficiency Video Coding
Codec ID                                 : V_MPEGH/ISO/HEVC
Duration                                 : 1h 46mn
Bit rate                                 : 4 583 Kbps
Width                                    : 1 920 pixels
Height                                   : 1 032 pixels
Display aspect ratio                     : 1.85:1
Frame rate mode                          : Constant
Frame rate                               : 23.976 fps
Bits/(Pixel*Frame)                       : 0.096
Stream size                              : 3.41 GiB (77%)
Title                                    : Video H.265 (Encoded by ZMachine)
Default                                  : Yes
Forced                                   : No

Audio #1
ID                                       : 2
Format                                   : AC-3
Format/Info                              : Audio Coding 3
Mode extension                           : CM (complete main)
Format settings, Endianness              : Big
Codec ID                                 : A_AC3
Duration                                 : 1h 46mn
Bit rate mode                            : Constant
Bit rate                                 : 640 Kbps
Channel(s)                               : 6 channels
Channel positions                        : Front: L C R, Side: L R, LFE
Sampling rate                            : 48.0 KHz
Bit depth                                : 16 bits
Compression mode                         : Lossy
Stream size                              : 488 MiB (11%)
Title                                    : Audio AC3 5.1
Language                                 : Italian
Default                                  : Yes
Forced                                   : No

Audio #2
ID                                       : 3
Format                                   : AC-3
Format/Info                              : Audio Coding 3
Mode extension                           : CM (complete main)
Format settings, Endianness              : Big
Codec ID                                 : A_AC3
Duration                                 : 1h 46mn
Bit rate mode                            : Constant
Bit rate                                 : 640 Kbps
Channel(s)                               : 6 channels
Channel positions                        : Front: L C R, Side: L R, LFE
Sampling rate                            : 48.0 KHz
Bit depth                                : 16 bits
Compression mode                         : Lossy
Stream size                              : 488 MiB (11%)
Title                                    : Audio AC3 5.1
Language                                 : English
Default                                  : No
Forced                                   : No

Text #1
ID                                       : 4
Format                                   : ASS
Codec ID                                 : S_TEXT/ASS
Codec ID/Info                            : Advanced Sub Station Alpha
Compression mode                         : Lossless
Title                                    : Sub
Language                                 : Italian
Default                                  : No
Forced                                   : No

Text #2
ID                                       : 5
Format                                   : ASS
Codec ID                                 : S_TEXT/ASS
Codec ID/Info                            : Advanced Sub Station Alpha
Compression mode                         : Lossless
Title                                    : Sub
Language                                 : English
Default                                  : No
Forced                                   : No

Menu
00:00:00.000                             : en:The Invaders (Main Titles)
00:04:04.285                             : en:The Professionals
00:06:29.639                             : en:Schaefer's Team
00:10:32.465                             : eneath in the Jungle
00:18:21.183                             : en:The Watcher
00:20:21.553                             : en:The Rebel Camp
00:27:52.337                             : en:Set Up
00:31:04.279                             : en:The Stalker
00:34:53.716                             : en:The Only Way Out
00:37:49.600                             : en:Something in the Trees
00:41:00.833                             : en:The Living Jungle
00:46:33.373                             : en:Another Kill
00:53:08.685                             : en:There's Something Out There
01:01:37.402                             : en:The Stand
01:04:08.761                             : en:The Demon
01:08:09.919                             : en:Two for the Kill
01:14:10.362                             : en:Billy's Last Stand
01:15:50.212                             : enutch and the Demon
01:18:27.369                             : en:The Alien's Weakness
01:20:55.809                             : en:The Trap and the Trophies
01:25:09.270                             : en:The Challenge
01:34:31.832                             : en:One Ugly
01:35:49.118                             : enuel
01:39:58.659                             : en:The Last Laugh
01:42:56.170                             : en:End Titles
Info: Per scaricare devi usare un client come uTorrent, o Azureus
AnnounceURL
http://tracker.tntvillage.scambioetico.org:2710/announce
Hash 0bc3d2b063c59ef27fe3e12a363392a640fa99c3
Peers seeds: 28 , leech: 56
Size 4.45 GB
Completato 408x
Aggiunto 15.02.15 - 11:02:38
Uploader   ZMachine
Votazione (Voti: 0)


Condividi questo bittorrent:


html/blog:


bbcode/forum:


Tramite bookmarks:



Aggiungi Commento