* Dettagli Torrent   globale  | Commenti (0) 


- Sin City - Una Donna Per Cui Uccidere (2014) (2014).BRrip.XviD - Italian English.Ac3 Sub NUIta Eng.M -



Download via torrent:
                 
Categoria bittorrent DVDrip
Descrizione
Sin City: A Dame to Kill For - Sin City - Una Donna Per Cui Uccidere (2014) (2014).BRrip.XviD - Italian English.Ac3 Sub NUIta Eng.MIRCrew



[center]



NO FOUND ONLY ORIGINAL RELEASE

Sin City - Una Donna Per Cui Uccidere - Sin City: A Dame to Kill For (2014)




 



Titolo originale Sin City: A Dame to Kill For
Lingua originale inglese
Paese di produzione USA
Anno 2014
Durata 102 min
Colore Colore, Bianco e nero
Rapporto 1,85 : 1
Genere azione, thriller, drammatico, noir, crimine
Regia Frank Miller, Robert Rodriguez
Soggetto Frank Miller (graphic novel)
Sceneggiatura Frank Miller, Robert Rodriguez, William Monahan
Produttore Robert Rodriguez, Sergei Bespalov, Aaron Kaufman, Stephen L'Heureux, Mark C. Manuel, Alexander Rodnyansky
Produttore esecutivo Frank Miller, Oleg Boyko, Sam Englebardt, Adam Fields, Jere Hausfater, Kia Jam, William D. Johnson, Kipp Nelson, Ted O'Neal, Allyn Stewart, Boris Teterev, Bob Weinstein, Harvey Weinstein
Casa di produzione Aldamisa Entertainment, Demarest Films, Miramax Films, Quick Draw Productions, Solipsist Film
Distribuzione (Italia) Lucky Red
Fotografia Robert Rodriguez
Montaggio Robert Rodriguez
Effetti speciali Richard W. Clot, Brian Cross, Brian Montgomery
Musiche Robert Rodriguez
Scenografia Steve Joyner
Costumi Nina Proctor
Trucco Meredith Johns, Angela Maldone




   Eva Green: Ava Lord
   Jessica Alba: Nancy Callahan
   Joseph Gordon-Levitt: Johnny
   Juno Temple: Sally
   Bruce Willis: John Hartigan
   Josh Brolin: Dwight McCarthy
   Jaime King: Goldie / Wendy
   Rosario Dawson: Gail
   Mickey Rourke: Marv
   Jamie Chung: Miho
   Lady Gaga: Bertha
   Christopher Meloni: Mort
   Jeremy Piven: Bob
   Ray Liotta: Joey
   Marton Csokas: Damien Lord
   Julia Garner: Marcie
   Stacy Keach: Wallenquist
   Dennis Haysbert: Manute
   Powers Boothe: Senatore Roark
   Christopher Lloyd: Kroenig
   Jude Ciccolella: Ten. Liebowitz
   Callie Hernandez: Thelma
   Alex Sparrow: Star nel bar


.

Gli eventi narrati si verificano anni prima di Un'abbuffata di morte. Dwight McCarthy un fotografo ingaggiato da mogli gelose per scattare foto dei mariti in flagrante adulterio. Durante il suo ultimo incarico, avendo salvato la giovane prostitua Sally dal suo amante Joey, Dwight la riaccompagna nella Citt Vecchia, territorio di dominio delle prostitute. Poco dopo essere tornato a casa riceve una telefonata da Ava Lord,......



Co-directors Robert Rodriguez and Frank Miller reunite to bring Miller's "Sin City" graphic novels back to the screen. Weaving together two of Miller's classic stories with new tales, the town's most hard boiled citizens cross paths with some of its more notorious inhabitants...
















[spoiler]
General
Complete name                            : Sin City - Una Donna Per Cui Uccidere (2014).ita.eng.sub.ita.MIRCrew\Sin City - Una Donna Per Cui Uccidere (2014).ita.eng.sub.ita.MIRCrew.avi
Format                                   : AVI
Format/Info                              : Audio Video Interleave
File size                                : 1.72 GiB
Duration                                 : 1h 42mn
Overall bit rate                         : 2 410 Kbps
Movie name                               : MIRCrew by robbyrs
Writing application                      : VirtualDubMod 1.5.10.2 (build 2540/release)
Writing library                          : VirtualDubMod build 2540/release

Video
ID                                       : 0
Format                                   : MPEG-4 Visual
Format profile                           : Simple@L3
Format settings, BVOP                    : No
Format settings, QPel                    : No
Format settings, GMC                     : No warppoints
Format settings, Matrix                  : Default (H.263)
Codec ID                                 : XVID
Codec ID/Hint                            : XviD
Duration                                 : 1h 42mn
Bit rate                                 : 1 500 Kbps
Width                                    : 720 pixels
Height                                   : 386 pixels
Display aspect ratio                     : 16:9
Frame rate                               : 23.976 fps
Color space                              : YUV
Chroma subsampling                       : 4:2:0
Bit depth                                : 8 bits
Scan type                                : Progressive
Compression mode                         : Lossy
Bits/(Pixel*Frame)                       : 0.225
Stream size                              : 1.07 GiB (62%)
Writing library                          : XviD 64

Audio #1
ID                                       : 1
Format                                   : AC-3
Format/Info                              : Audio Coding 3
Mode extension                           : CM (complete main)
Codec ID                                 : 2000
Duration                                 : 1h 42mn
Bit rate mode                            : Constant
Bit rate                                 : 448 Kbps
Channel(s)                               : 6 channels
Channel positions                        : Front: L C R, Side: L R, LFE
Sampling rate                            : 48.0 KHz
Bit depth                                : 16 bits
Compression mode                         : Lossy
Stream size                              : 328 MiB (19%)
Alignment                                : Split accross interleaves
Interleave, duration                     : 42 ms (1.00 video frame)
Interleave, preload duration             : 500 ms

Audio #2
ID                                       : 2
Format                                   : AC-3
Format/Info                              : Audio Coding 3
Mode extension                           : CM (complete main)
Codec ID                                 : 2000
Duration                                 : 1h 42mn
Bit rate mode                            : Constant
Bit rate                                 : 448 Kbps
Channel(s)                               : 6 channels
Channel positions                        : Front: L C R, Side: L R, LFE
Sampling rate                            : 48.0 KHz
Bit depth                                : 16 bits
Compression mode                         : Lossy
Stream size                              : 328 MiB (19%)
Alignment                                : Split accross interleaves
Interleave, duration                     : 42 ms (1.00 video frame)
Interleave, preload duration             : 500 ms

[/spoiler]

[/center]

&&e4t67uk
Info: Per scaricare devi usare un client come uTorrent, o Azureus
AnnounceURL
udp://open.demonii.com:1337/announce
Hash 16496ad0657fa05dcf0ae5228468bb7603c76ada
Peers seeds: 256 , leech: 75
Size 1.72 GB
Completato 41x
Aggiunto 20.02.15 - 12:02:42
Uploader   robbyrs
Votazione (Voti: 0)


Condividi questo bittorrent:


html/blog:


bbcode/forum:


Tramite bookmarks:



Aggiungi Commento