* Dettagli Torrent   globale  | Commenti (7) 


- Predators ITA ENG AC3 BDRip 1080p X265 ZMachine -


Download via torrent:
                 
Categoria bittorrent DVDrip
Descrizione






:: Scheda del Film ::

Titolo Originale: Predators
NazionalitÓ: USA
Anno: 2010
Genere: Azione, Fantascienza
Regia: Nimrˇd Antal
Durata: 124 Min

Cast:
Adrien Brody, Topher Grace, Danny Trejo, Alice Braga, Laurence Fishburne, Walton Goggins, Oleg Taktarov, Louis Ozawa Changchien, Mahershalalhashbaz Ali, Brian Steele

:: Yrama ::

PREDATORS, il nuovo capitolo della saga dei Predator, nasce sotto gli auspici creativi di Robert Rodiriguez, e ha per protagonista Adrien Brody nei panni di Royce, un mercenario che con riluttanza guida un gruppo di guerrieri scelti che scopriranno di essere stati portati su un pianeta alieno...come prede. Con l' eccezione di un medico, sono tutti spietati assassini - mercenari, Yazuka, condannati, membri di squadroni della morte - "predatori" umani che stanno per essere sistematicamente cacciati e uccisi da una nuova razza di Predatori alieni.

:: Screenshots ::








:: Mediainfo ::

General
Unique ID                                : 220781276677396729527633032731438004910 (0xA618ED5C68C882679CE900AC710ABAAE)
Complete name                            : D:\Predators\Predators.ITA.ENG.AC3.BDRip.1080p.X265_ZMachine.mkv
Format                                   : Matroska
Format version                           : Version 4 / Version 2
File size                                : 4.90 GiB
Duration                                 : 1h 46mn
Overall bit rate                         : 6 568 Kbps
Movie name                               : Predators - ZMachine
Encoded date                             : UTC 2015-02-24 09:27:53
Writing application                      : mkvmerge v7.5.0 ('Glass Culture') 64bit built on Jan  4 2015 16:48:44
Writing library                          : libebml v1.3.1 + libmatroska v1.4.2

Video
ID                                       : 1
Format                                   : HEVC
Format/Info                              : High Efficiency Video Coding
Codec ID                                 : V_MPEGH/ISO/HEVC
Duration                                 : 1h 46mn
Bit rate                                 : 5 157 Kbps
Width                                    : 1 920 pixels
Height                                   : 816 pixels
Display aspect ratio                     : 2.35:1
Frame rate mode                          : Constant
Frame rate                               : 23.976 fps
Bits/(Pixel*Frame)                       : 0.137
Stream size                              : 3.85 GiB (79%)
Title                                    : Video H.265 (Encoded by ZMachine)
Language                                 : English
Default                                  : Yes
Forced                                   : No

Audio #1
ID                                       : 2
Format                                   : AC-3
Format/Info                              : Audio Coding 3
Mode extension                           : CM (complete main)
Format settings, Endianness              : Big
Codec ID                                 : A_AC3
Duration                                 : 1h 46mn
Bit rate mode                            : Constant
Bit rate                                 : 640 Kbps
Channel(s)                               : 6 channels
Channel positions                        : Front: L C R, Side: L R, LFE
Sampling rate                            : 48.0 KHz
Bit depth                                : 16 bits
Compression mode                         : Lossy
Stream size                              : 489 MiB (10%)
Title                                    : Audio AC3 5.1
Language                                 : Italian
Default                                  : Yes
Forced                                   : No

Audio #2
ID                                       : 3
Format                                   : AC-3
Format/Info                              : Audio Coding 3
Mode extension                           : CM (complete main)
Format settings, Endianness              : Big
Codec ID                                 : A_AC3
Duration                                 : 1h 46mn
Bit rate mode                            : Constant
Bit rate                                 : 640 Kbps
Channel(s)                               : 6 channels
Channel positions                        : Front: L C R, Side: L R, LFE
Sampling rate                            : 48.0 KHz
Bit depth                                : 16 bits
Compression mode                         : Lossy
Stream size                              : 489 MiB (10%)
Title                                    : Audio AC3 5.1
Language                                 : English
Default                                  : No
Forced                                   : No

Text #1
ID                                       : 4
Format                                   : ASS
Codec ID                                 : S_TEXT/ASS
Codec ID/Info                            : Advanced Sub Station Alpha
Compression mode                         : Lossless
Title                                    : Sub
Language                                 : Italian
Default                                  : No
Forced                                   : No

Text #2
ID                                       : 5
Format                                   : ASS
Codec ID                                 : S_TEXT/ASS
Codec ID/Info                            : Advanced Sub Station Alpha
Compression mode                         : Lossless
Title                                    : Sub
Language                                 : English
Default                                  : No
Forced                                   : No

Menu
00:00:00.000                             : en:Chapter 1
00:05:27.035                             : en:Chapter 2
00:07:57.393                             : en:Chapter 3
00:13:33.521                             : en:Chapter 4
00:17:26.587                             : en:Chapter 5
00:20:02.409                             : en:Chapter 6
00:23:46.299                             : en:Chapter 7
00:26:19.119                             : en:Chapter 8
00:31:34.517                             : en:Chapter 9
00:34:56.511                             : en:Chapter 10
00:38:24.719                             : en:Chapter 11
00:41:57.056                             : en:Chapter 12
00:46:12.978                             : en:Chapter 13
00:49:57.786                             : en:Chapter 14
00:53:27.954                             : en:Chapter 15
00:57:43.126                             : en:Chapter 16
01:02:11.853                             : en:Chapter 17
01:05:48.903                             : en:Chapter 18
01:09:38.757                             : en:Chapter 19
01:14:16.994                             : en:Chapter 20
01:16:25.539                             : en:Chapter 21
01:19:26.928                             : en:Chapter 22
01:21:34.472                             : en:Chapter 23
01:23:51.901                             : en:Chapter 24
01:27:33.706                             : en:Chapter 25
01:30:48.234                             : en:Chapter 26
01:34:12.563                             : en:Chapter 27
01:41:17.696                             : en:Chapter 28
01:46:52.823                             : en:Chapter 29



Info: Per scaricare devi usare un client come uTorrent, o Azureus
AnnounceURL
http://tracker.tntvillage.scambioetico.org:2710/announce
Hash 033624789d4b48b9ba443312a27579088ce87519
Peers seeds: 25 , leech: 41
Size 4.90 GB
Completato 320x
Aggiunto 25.02.15 - 19:02:50
Uploader   ZMachine
Votazione (Voti: 0)


Condividi questo bittorrent:


html/blog:


bbcode/forum:


Tramite bookmarks:



Aggiungi Commento
Ultimi commenti
  
Ciao scusate se mi intrometto,ma visto che si tratta solo di risoluzione,se uno non ha la tv full hd cosa serve il 265?e poi  fare un blueray? anche io li facevo con gli stampabili,ma adesso hd 1 tera usb3 collegato direttamente alla tv  con file mkv e ti posso garantire  minimo sbattimento e altissssssiiiiima resa
14/03 19.40
  
Hai perfettamente ragione, l'h265 e` un codec ancora " di nicchia " e chissa tra quanto sara` nella realta` come oggi e`il 264. Che io sappia , anche parlando con dei tecnici,scopro che ne so piu`io  di loro......Zmachine e altri pochi lo usano.. ma Zmachine fa delle relle stupende e tecnicamente perfette, io non sono uno smanettone del pc,io ho fatto una mia scelta , li masterizzo su dei bd 25 (in rete li trovi a pochissimo) cosi`li leggo con qualsiasi lettore bluray esattamente come un qualsiasi bluray. Si vedono da dio e non hanno nessun difetto video. Poi ognuno e`libero di fare come  crede .
14/03 15.20
  
Non capisco questo X265 a che cavolo serva, Ŕ ancora fuori dalla compatibilitÓ di ogni Smart TV del 2015 -.-" Meh...
05/03 10.54
Tutti commenti (7)