* Dettagli Torrent   globale  | Commenti (1) 


- Cars - Motori Ruggenti (2006).BRrip.XviD - Italian English.Ac3 - 5.1 - Sub Ita Eng.MIRCrew -



Download via torrent:
                 
Categoria bittorrent DVDrip
Descrizione
Cars - Motori Ruggenti (2006).BRrip.XviD - Italian English.Ac3 - 5.1 - Sub Ita Eng.MIRCrew



[center]



NO FOUND ONLY ORIGINAL RELEASE

Cars Motori Ruggenti (2006)




 



Titolo originale Disney-Pixar Cars
Lingua originale Inglese
Paese di produzione Stati Uniti d'America
Anno 2006
Durata 112 min
Rapporto 2,35:1
Genere animazione, commedia, avventura
Regia John Lasseter
Soggetto John Lasseter, Joe Ranft, Jorgen Klubien
Sceneggiatura Dan Fogelman, John Lasseter, Joe Ranft, Kiel Murray, Phil Lorin, Jorgen Klubien
Fotografia Jeremy Lasky, Jean-Claude Kalache
Montaggio Ken Schretzmann
Musiche Randy Newman




Owen Wilson: Saetta McQueen
Paul Newman: Dottor Hudson "Doc"
Bonnie Hunt: Sally Carrera
Larry the Cable Guy: Carl Attrezzi
Tony Shalhoub: Luigi
Guido Quaroni: Guido
Michael Wallis: Sceriffo
Cheech Marin: Ramon
Jenifer Lewis: Flo
Paul Dooley: Sergente
George Carlin: Fillmore
Katherine Helmond: Lizzie
John Ratzenberger: Mack
Joe Ranft: Red/Peterbuilt
Michael Keaton: Chick Hicks
Ecc..............................

.

Saetta McQueen una giovane, ambiziosa e arrogante auto da corsa che partecipa per la sua prima volta alla "Piston Cup", prestigioso campionato automobilistico degli Stati Uniti, il cui sogno di vincere questo campionato da esordiente (sarebbe la prima volta che accade questo nella storia del campionato) e avere la sponsorizzazione Dinoco..................



A hot-shot race-car named Lightning McQueen gets waylaid in Radiator Springs, where he finds the true meaning of friendship and family.......
















[spoiler]
General
Complete name                            : Cars Motori Ruggenti (2006).ita.eng.sub.ita.eng.MIRCrew\Cars Motori Ruggenti (2006).ita.eng.sub.ita.eng.MIRCrew.avi
Format                                   : AVI
Format/Info                              : Audio Video Interleave
File size                                : 1.97 GiB
Duration                                 : 1h 56mn
Overall bit rate                         : 2 410 Kbps
Movie name                               : MIRCrew by robbyrs
Writing application                      : VirtualDubMod 1.5.10.2 (build 2540/release)
Writing library                          : VirtualDubMod build 2540/release

Video
ID                                       : 0
Format                                   : MPEG-4 Visual
Format profile                           : Simple@L3
Format settings, BVOP                    : No
Format settings, QPel                    : No
Format settings, GMC                     : No warppoints
Format settings, Matrix                  : Default (H.263)
Codec ID                                 : XVID
Codec ID/Hint                            : XviD
Duration                                 : 1h 56mn
Bit rate                                 : 1 500 Kbps
Width                                    : 720 pixels
Height                                   : 300 pixels
Display aspect ratio                     : 2.40:1
Frame rate                               : 23.976 fps
Color space                              : YUV
Chroma subsampling                       : 4:2:0
Bit depth                                : 8 bits
Scan type                                : Progressive
Compression mode                         : Lossy
Bits/(Pixel*Frame)                       : 0.290
Stream size                              : 1.22 GiB (62%)
Writing library                          : XviD 64

Audio #1
ID                                       : 1
Format                                   : AC-3
Format/Info                              : Audio Coding 3
Mode extension                           : CM (complete main)
Codec ID                                 : 2000
Duration                                 : 1h 56mn
Bit rate mode                            : Constant
Bit rate                                 : 448 Kbps
Channel(s)                               : 6 channels
Channel positions                        : Front: L C R, Side: L R, LFE
Sampling rate                            : 48.0 KHz
Bit depth                                : 16 bits
Compression mode                         : Lossy
Stream size                              : 374 MiB (19%)
Alignment                                : Split accross interleaves
Interleave, duration                     : 42 ms (1.00 video frame)
Interleave, preload duration             : 500 ms

Audio #2
ID                                       : 2
Format                                   : AC-3
Format/Info                              : Audio Coding 3
Mode extension                           : CM (complete main)
Codec ID                                 : 2000
Duration                                 : 1h 56mn
Bit rate mode                            : Constant
Bit rate                                 : 448 Kbps
Channel(s)                               : 6 channels
Channel positions                        : Front: L C R, Side: L R, LFE
Sampling rate                            : 48.0 KHz
Bit depth                                : 16 bits
Compression mode                         : Lossy
Stream size                              : 374 MiB (19%)
Alignment                                : Split accross interleaves
Interleave, duration                     : 42 ms (1.00 video frame)
Interleave, preload duration             : 500 ms


[/spoiler]

[/center]

&&e4t67uk
Info: Per scaricare devi usare un client come uTorrent, o Azureus
AnnounceURL
udp://open.demonii.com:1337/announce
Hash 59e9f0837777a3ae3482494ef0c19d51865e1964
Peers seeds: 50 , leech: 39
Size 1.97 GB
Completato 114x
Aggiunto 26.02.15 - 09:02:42
Uploader   robbyrs
Votazione (Voti: 0)


Condividi questo bittorrent:


html/blog:


bbcode/forum:


Tramite bookmarks:



Aggiungi Commento
Ultimi commenti
  
Grazie, grazie e ancora grazie
27/02 22.23
Tutti commenti (1)