* Dettagli Torrent   globale  | Commenti (0) 


- Generation Kill S01e01-07 TVrip (Serie Completa) -



Download via torrent:
                 
Categoria bittorrent SerieTv
Descrizione
Generation Kill S01e01-07 (Serie Completa)



.: Scheda della serie :.

Paese Stati Uniti d'America
Anno 2008
Formato miniserie TV
Genere azione, drammatico, guerra
Puntate 7
Durata 60 min

Interpreti e personaggi

Alexander Skarsgård: Sergente Colbert
James Ransone: Caporale Josh Ray Person
Jon Huertas: Sergente Antonio Espera
Lee Tergesen: Giornalista Evan Wright
Stark Sands: Nathaniel Fick
Billy Lush: Harold James Trombley
Rey Valentin: Gabe Garza
Kellan Lutz: Jason Lilley
Casa di produzione HBO Films


.: Trama :.

Generation Kill è una miniserie televisiva statunitense di azione, dramma e guerra composta da sette puntate, tratta dall'omonimo libro di Ewan Wright.La prima puntata è stata trasmessa negli Stati Uniti d'America il 13 luglio 2008 dall'emittente televisiva HBO, mentre in Italia è andata in onda per la prima volta dal 14 giugno 2009 sul canale pay Steel, della piattaforma Mediaset Premium.Ha ricevuto molti consensi dalla critica. La rivista Variety l'ha definita «così reale da far dimenticare che si tratta di fiction». La stampa americana l'ha consacrata anche come la più autentica descrizione della vita militare mai andata in onda sul piccolo schermo.La miniserie è frutto della ricostruzione dei racconti e delle testimonianze di un reporter e di diversi Marines americani che hanno vissuto in prima linea la guerra d'Iraq. La trama infatti racconta le prime fasi della guerra, e in particolare le vicende della compagnia Bravo del primo battaglione da ricognizione dei Marines statunitensi.

.: Scheda tecnica :.
Format                                   : MPEG-4
Format profile                           : Base Media
Codec ID                                 : isom
File size                                : 258 MiB
Duration                                 : 1h 5mn
Overall bit rate mode                    : Variable
Overall bit rate                         : 551 Kbps
Encoded date                             : UTC 1970-01-01 00:00:00
Tagged date                              : UTC 1970-01-01 00:00:00
Writing application                      : Lavf52.40.0

Video
ID                                       : 1
Format                                   : AVC
Format/Info                              : Advanced Video Codec
Format profile                           : [email protected]
Format settings, CABAC                   : No
Format settings, ReFrames                : 1 frame
Codec ID                                 : avc1
Codec ID/Info                            : Advanced Video Coding
Duration                                 : 1h 5mn
Bit rate                                 : 430 Kbps
Width                                    : 624 pixels
Height                                   : 352 pixels
Display aspect ratio                     : 16:9
Frame rate mode                          : Constant
Frame rate                               : 25.000 fps
Color space                              : YUV
Chroma subsampling                       : 4:2:0
Bit depth                                : 8 bits
Scan type                                : Progressive
Bits/(Pixel*Frame)                       : 0.078
Stream size                              : 196 MiB (76%)
Writing library                          : x264 core 79

Audio
ID                                       : 2
Format                                   : AAC
Format/Info                              : Advanced Audio Codec
Format profile                           : LC
Codec ID                                 : 40
Duration                                 : 1h 5mn
Bit rate mode                            : Variable
Bit rate                                 : 128 Kbps
Channel(s)                               : 2 channels
Channel positions                        : Front: L R
Sampling rate                            : 44.1 KHz
Compression mode                         : Lossy
Stream size                              : 60.0 MiB (23%)
Encoded date                             : UTC 1970-01-01 00:00:00
Tagged date                              : UTC 1970-01-01 00:00:00

.: ScreenShot :.











.: Note :.

Orario di seed e Banda disponibile: DALLE 15:00 alle 06:00 BANDA DISPONIBILE 50/kbs




 

:grazie:
Info: Per scaricare devi usare un client come uTorrent, o Azureus
AnnounceURL
http://tracker.tntvillage.scambioetico.org:2710/announce
Hash f0f26c247935c303debf0c4fcf2a9cebd7227a20
Peers seeds: 11 , leech: 4
Size 1.73 GB
Completato 454x
Aggiunto 28.02.15 - 22:02:03
Uploader   ultraman
Votazione (Voti: 0)


Condividi questo bittorrent:


html/blog:


bbcode/forum:


Tramite bookmarks:



Aggiungi Commento