* Dettagli Torrent   globale  | Commenti (0) 


- Una casa tutta per noi (1993) -



Download via torrent:
                 
Categoria bittorrent DVDrip
Descrizione
Una casa tutta per noi (1993)



.: Scheda del Film :.

GENERE: Drammatico
ANNO: 1993
REGIA: Tony Bill
SCENEGGIATURA: Patrick Sheane Duncan
ATTORI:Kathy Bates, Tony Campisi, Miles Feulner, Edward Furlong, T. J. Lowther, Sarah Schaub, Amy Sakasitz, Soon-Tek Oh, Clarissa Lassig
FOTOGRAFIA: Jean LÚpine
MONTAGGIO: Axel Hubert
MUSICHE: Sharon Boyle, Michael Convertino
PRODUZIONE: DALE POLLOCK, BILL BORDEN
DISTRIBUZIONE: WARNER BROS ITALIA (1994) - PANARECORD
PAESE: USA
DURATA: 105 Min
FORMATO: NORMALE A COLORI
Cast:
Regia:Tony Bill
Kathy Bates
Edward Furlong
Tony Campisi
Soon-Teck Oh



.: Trama :.[/align]

Rimasta vedova con sei figli, molestata sul lavoro e licenziata, Frances Lacey, raggiunge, con figli e masserizie, un villaggio dell'Idaho, Hankston. Dopo aver acquistato da un coreano, Moon Munimura, una casa in rovina, inizia a ricostruirla, aiutata da costui in cambio di servizi domestici. Frances rifiuta ogni tipo di assistenza caritativa, soprattutto da parte del parroco, Padre Tomlin. Con l'aiuto del cortese Moon, la stamberga prende l'aspetto di una abitazione. Shaine, figlio maggiore, vorrebbe essere rimasto a Los Angeles, ed ogni tanto si ribella rimediando le cinghiate della genitrice. Tutti collaborano alla realizzazione del sogno di Frances, che ha trovato un lavoro in un Bowling, ed ha anche un flirt con Norman, che si tronca burrascosamente quando lei, per non cedere alle sue avance, viene picchiata. Il figlio Murray, dopo esser caduto dal tetto e scampato ad una paralisi, lavora in un rottamaio, e porta a casa oggetti vari, tra cui un water, che sostituisce il baracchino esterno con soddisfazione generale. Per festeggiare, Murray brucia il gabbiotto ma appicca involontariamente fuoco alla casa, che va in cenere. Scatta la solidarietÓ di Moon dei paesani che decidono di ricostruire l'abitazione. Frances accetta a patto di onorare i debiti. Shayne ha la soddisfazione di vedere la cinghia paterna inchiodata ad un albero, ed ha trovato anche una ragazza. Il sogno di Frances, di avere una casa tutta per la sua famiglia, si Ŕ avverato.

[align=center].: ScreenShot :.




.: Scheda tecnica del filmato :.
[spoiler]

tutta per noi.1993.italian.XviD.mp4
Format                                   : MPEG-4
Format profile                           : Base Media / Version 2
Codec ID                                 : mp42
File size                                : 319 MiB
Duration                                 : 1h 37mn
Overall bit rate mode                    : Variable
Overall bit rate                         : 460 Kbps
Encoded date                             : UTC 2014-06-10 06:41:34
Tagged date                              : UTC 2014-06-10 06:41:34

Video
ID                                       : 201
Format                                   : AVC
Format/Info                              : Advanced Video Codec
Format profile                           : [email protected]
Format settings, CABAC                   : Yes
Format settings, ReFrames                : 2 frames
Codec ID                                 : avc1
Codec ID/Info                            : Advanced Video Coding
Duration                                 : 1h 37mn
Duration_FirstFrame                      : -40ms
Bit rate                                 : 387 Kbps
Maximum bit rate                         : 1 171 Kbps
Width                                    : 720 pixels
Height                                   : 396 pixels
Display aspect ratio                     : 16:9
Frame rate mode                          : Variable
Frame rate                               : 25.000 fps
Minimum frame rate                       : 12.500 fps
Maximum frame rate                       : 25.000 fps
Color space                              : YUV
Chroma subsampling                       : 4:2:0
Bit depth                                : 8 bits
Scan type                                : Progressive
Bits/(Pixel*Frame)                       : 0.054
Stream size                              : 269 MiB (84%)
Writing library                          : x264 core 107

Audio
ID                                       : 101
Format                                   : AAC
Format/Info                              : Advanced Audio Codec
Format profile                           : LC
Codec ID                                 : 40
Duration                                 : 1h 37mn
Bit rate mode                            : Variable
Bit rate                                 : 70.0 Kbps
Maximum bit rate                         : 82.6 Kbps
Channel(s)                               : 2 channels
Channel positions                        : Front: L R
Sampling rate                            : 44.1 KHz
Compression mode                         : Lossy
Stream size                              : 48.6 MiB (15%)
Encoded date                             : UTC 2014-06-10 06:41:35
Tagged date                              : UTC 2014-06-10 06:41:36

Other #1
ID                                       : 2
Type                                     : Object description
Format                                   : System
Codec ID                                 : 1
Duration                                 : 1s 0ms
Encoded date                             : UTC 2014-06-10 06:41:36
Tagged date                              : UTC 2014-06-10 06:41:36

Other #2
ID                                       : 1
Type                                     : Scene description
Format                                   : System Core
Codec ID                                 : 2
Duration                                 : 1s 0ms
Encoded date                             : UTC 2014-06-10 06:41:36
Tagged date                              : UTC 2014-06-10 06:41:36

[/spoiler]

.: Note :.

Orario di seed e Banda disponibile:24/7: Banda disponibile 40 kbs

[color=black]RIMANETE IN SEED UNA VOLTA COMPLETATO!!!
Info: Per scaricare devi usare un client come uTorrent, o Azureus
AnnounceURL
http://tracker.tntvillage.scambioetico.org:2710/announce
Hash ccd055af5c5aa692ef719351e62914ad5a3c3035
Peers seeds: 3 , leech: 0
Size 319.47 MB
Completato 257x
Aggiunto 02.03.15 - 01:03:05
Uploader   ultraman
Votazione (Voti: 0)


Condividi questo bittorrent:


html/blog:


bbcode/forum:


Tramite bookmarks:



Aggiungi Commento