* Dettagli Torrent   globale  | Commenti (0) 


- MY GIRL 2 : Il mio primo bacio.Italian (1994) -



Download via torrent:
                 
Categoria bittorrent DVDrip
Descrizione
MY GIRL 2 : Il mio primo bacio  Italian (1994)



.: Scheda del Film:.

Titolo originale:My Girl 2
NazionalitÓ:USA
Anno:1994                                
Genere:commedia drammatica
Regia:Howard Zieff
Language:ITALIAN


.:Cast:.

Dan Aykroyd: Harry Sultenfuss
Jamie Lee Curtis: Shelly
Anna Chlumsky: Leda Sultenfuss
Richard Masur: Phill Sultenfuss
Austin O'Brien: Nick Zsigmond
Christine Ebersole: Rose Zsigmond
Anthony Jones: Arthur


.:Trama:.

Leda deve scrivere un saggio per la scuola su una persona importante che non ha mai conosciuto. Decide di dedicare il suo compito alla madre, e si mette in viaggio per la California per indagare sul suo passato.
SarÓ ospite dello zio Phill, trasferitosi per cambiare registro, per cinque giorni. Lý conoscerÓ la sua futura zia, Rose, e suo figlio Nick. Dopo le prime amare scoperte sul passato di sua madre, riesce a rintracciare il suo ex fidanzato che le regala un video su pellicola dei preparativi per uno spettacolo a cui ha partecipato sua madre, e altre registrazioni, in cui lei si esibisce in una canzone.
Felice per aver trovato molte informazioni sulla sua madre, Leda torna a casa, scambiandosi un tenero bacio appassionato con Nick, e sarÓ di ritorno in tempo per veder nascere il suo nuovo fratellino.


.: ScreenShot :.







.: Scheda tecnica del filmato :.
Complete name                            : G:\FILM\My girl 2 - Il mio primo bacio.1994.italian.dvdrip.avi
Format                                   : AVI
Format/Info                              : Audio Video Interleave
File size                                : 1.37 GiB
Duration                                 : 1h 34mn
Overall bit rate                         : 2 065 Kbps
Writing application                      : VirtualDubMod 1.5.10.1 (build 2439/release)
Writing library                          : VirtualDubMod build 2439/release

Video
ID                                       : 0
Format                                   : MPEG-4 Visual
Format profile                           : Advanced Simple@L5
Format settings, BVOP                    : 1
Format settings, QPel                    : No
Format settings, GMC                     : No warppoints
Format settings, Matrix                  : Default (MPEG)
Codec ID                                 : XVID
Codec ID/Hint                            : XviD
Duration                                 : 1h 34mn
Bit rate                                 : 1 864 Kbps
Width                                    : 592 pixels
Height                                   : 320 pixels
Display aspect ratio                     : 1.85:1
Frame rate                               : 25.000 fps
Color space                              : YUV
Chroma subsampling                       : 4:2:0
Bit depth                                : 8 bits
Scan type                                : Progressive
Compression mode                         : Lossy
Bits/(Pixel*Frame)                       : 0.394
Stream size                              : 1.23 GiB (90%)
Writing library                          : XviD 1.2.1 (UTC 2008-12-04)

Audio
ID                                       : 1
Format                                   : AC-3
Format/Info                              : Audio Coding 3
Format profile                           : Dolby Digital
Mode extension                           : CM (complete main)
Format settings, Endianness              : Big
Codec ID                                 : 2000
Duration                                 : 1h 34mn
Bit rate mode                            : Constant
Bit rate                                 : 192 Kbps
Channel(s)                               : 2 channels
Channel positions                        : Front: L R
Sampling rate                            : 48.0 KHz
Bit depth                                : 16 bits
Compression mode                         : Lossy
Stream size                              : 130 MiB (9%)
Alignment                                : Split accross interleaves
Interleave, duration                     : 40 ms (1.00 video frame)
Interleave, preload duration             : 500 ms


Orario di seed 24/7:Banda disponibile 40 kbs



RIMANETE IN SEED UNA VOLTA COMPLETATO !!
Info: Per scaricare devi usare un client come uTorrent, o Azureus
AnnounceURL
http://tracker.tntvillage.scambioetico.org:2710/announce
Hash 84d1091dadfa76fd055e66f05f68250703f54729
Peers seeds: 3 , leech: 0
Size 1.37 GB
Completato 536x
Aggiunto 02.03.15 - 01:03:34
Uploader   ultraman
Votazione (Voti: 0)


Condividi questo bittorrent:


html/blog:


bbcode/forum:


Tramite bookmarks:



Aggiungi Commento