* Dettagli Torrent   globale  | Commenti (0) 


- Fire and Ice (Fuoco e ghiaccio) 1983 -



Download via torrent:
                 
Categoria bittorrent DVDrip
Descrizione
Fire and Ice (Fuoco e ghiaccio) 1983



.: Scheda del Film :.

Titolo originale Fire and Ice
Lingua originale inglese
Paese di produzione USA
Anno 1983
Durata 81 min
Colore colore
Audio sonoro
Rapporto 1.78
Genere animazione, fantasy
Regia Ralph Bakshi
Sceneggiatura Gerry Conway,
Ralph Bakshi,
Frank Frazetta
Produttore Ralph Bakshi,
Frank Frazetta
Animatori Mark Bakshi,
Brenda Banks,
Carl Bell
Fotografia Francis Grumman
Montaggio A. David Marshall
Musiche William Kraft
Costumi Frank Frazetta
Sfondi John Sparey,
Mike Svayko

Interpreti e personaggi:

Randy Norton: Larn
Cynthia Leake: Teegra
Steve Sandor: Darkwolf
Sean Hannon: Nekron
Leo Gordon: Jarol
William Ostrander: Taro / voce di Larn
Eileen O'Reill: Juliana
Elizabeth Lloyd Shaw: Roleil


.: Trama :.

La vicenda si svolge nella preistoria e precisamente alla fine dell'ultima grande era glaciale. Il Nord dominato dalla regina Juliana, che nutre la speranza di estendere il suo regno su tutta la terra. Ha istruito il figlio Nekron nelle arti della magia nera e gli ha comunicato poteri sovrumani. Ora il Regno del Ghiaccio si dispone ad invadere quel che resta del Regno del Fuoco, a Sud, governato dal saggio ed onesto re Jarol. Le due regge, il Picco del Ghiaccio e la Torre del Fuoco, diventano i simboli del male e del bene. Un esercito di subumani al servizio di Nekron: con ferocia essi sterminano gli umani raggiunti nei loro villaggi, mentre i Ghiacci avanzano senza trovare resistenza. Un sopravvissuto, Larn, viene pi volte catturato, ma la sua astuzia riesce costantemente superiore alla selvaggia prepotenza. Teegra, figlia di Jarol, fatta oggetto di brama, viene catturata dai selvaggi, ma essa, anche con l'aiuto di Larn, si libera ogni volta dalle loro catene. Veglia su di lei un gigante buono, Darkwolf, che interviene sempre al momento opportuno. Dopo molteplici avventure, il re del Fuoco si vede costretto a riversare sul potente esercito del re dei Ghiacci e sulla sua reggia il fuoco dei suoi vulcani. Larn e Teegra, finalmente liberi, coronano il loro sogno d'amore e di pace, che la giovane si augura essere universale e perpetua.


.: ScreenShot :.







.: Scheda tecnica del filmato :.
Complete name                            : C:\Users\-\Desktop\Fire and Ice.mkv
Format                                   : Matroska
Format version                           : Version 4 / Version 2
File size                                : 445 MiB
Duration                                 : 1h 21mn
Overall bit rate                         : 761 Kbps
Movie name                               : Fire and Ice
Encoded date                             : UTC 2014-12-15 02:12:16
Writing application                      : mkvmerge v7.4.0 ('Circles') 32bit built on Dec 12 2014 12:10:09
Writing library                          : Lavf54.63.104

Video
ID                                       : 1
Format                                   : AVC
Format/Info                              : Advanced Video Codec
Format profile                           : [email protected]
Format settings, CABAC                   : Yes
Format settings, ReFrames                : 1 frame
Codec ID                                 : V_MPEG4/ISO/AVC
Duration                                 : 1h 21mn
Bit rate                                 : 700 Kbps
Width                                    : 720 pixels
Height                                   : 300 pixels
Display aspect ratio                     : 2.40:1
Frame rate mode                          : Constant
Frame rate                               : 25.000 fps
Color space                              : YUV
Chroma subsampling                       : 4:2:0
Bit depth                                : 8 bits
Scan type                                : Progressive
Bits/(Pixel*Frame)                       : 0.130
Stream size                              : 398 MiB (90%)
Writing library                          : x264 core 129
Default                                  : Yes
Forced                                   : No

Audio
ID                                       : 2
Format                                   : MPEG Audio
Format version                           : Version 1
Format profile                           : Layer 3
Mode                                     : Joint stereo
Mode extension                           : MS Stereo
Codec ID                                 : A_MPEG/L3
Codec ID/Hint                            : MP3
Duration                                 : 1h 21mn
Bit rate mode                            : Constant
Bit rate                                 : 64.0 Kbps
Channel(s)                               : 2 channels
Sampling rate                            : 48.0 KHz
Compression mode                         : Lossy
Stream size                              : 37.4 MiB (8%)
Default                                  : Yes
Forced                                   : No

.: Note :.

orario di seed e Banda disponibile:24/7 fino a 10 completi - banda 40kbs

Info: Per scaricare devi usare un client come uTorrent, o Azureus
AnnounceURL
http://tracker.tntvillage.scambioetico.org:2710/announce
Hash 5bbaf3686d903bdd464b8d11e331b58ea7a92373
Peers seeds: 4 , leech: 0
Size 444.53 MB
Completato 581x
Aggiunto 02.03.15 - 02:03:24
Uploader   ultraman
Votazione (Voti: 0)


Condividi questo bittorrent:


html/blog:


bbcode/forum:


Tramite bookmarks:



Aggiungi Commento