* Dettagli Torrent   globale  | Commenti (0) 


- Stuck in Love (2012).BRrip.XviD - Italian English.Ac3 - Sub Ita.MIRCrew -



Download via torrent:
                 
Categoria bittorrent DVDrip
Descrizione
Stuck in Love (2012).BRrip.XviD - Italian English.Ac3 - Sub Ita.MIRCrew



[center]



NO FOUND ONLY ORIGINAL RELEASE

Stuck in Love (2012)




 



Lingua originale Inglese
Paese di produzione Stati Uniti
Anno 2012
Durata 97 min
Rapporto 2.35 : 1
Genere commedia, drammatico, sentimentale
Regia Josh Boone
Sceneggiatura Josh Boone
Musiche Mike Mogis, Nate Walco




   Greg Kinnear: Bill Borgens
   Jennifer Connelly: Erica
   Lily Collins: Samantha Borgens
   Kristen Bell: Tricia
   Logan Lerman: Louis
   Nat Wolff: Rusty Borgens
   Liana Liberato: Kate


.

Lo scrittore Bill Borgens sta lottando dopo che sua moglie Erica lo ha lasciato per un uomo pi giovane tre anni prima. Invece di lavorare su un nuovo libro, ossessionato dalla sua ex, spia lei e il suo nuovo marito mentre finge di andare a jogging, e insiste che il loro figlio sedicenne, Rusty, prepari un posto al tavolo del Ringraziamento per Erica, anche se lei non viene mai.....



An acclaimed writer, his ex-wife, and their teenaged children come to terms with the complexities of love in all its forms over the course of one tumultuous year......................
















[spoiler]
General
Complete name                            : Stuck in Love (2012).ita.eng.sub.ita.MIRCrew\Stuck in Love (2012).ita.eng.sub.ita.MIRCrew.avi
Format                                   : AVI
Format/Info                              : Audio Video Interleave
File size                                : 1.63 GiB
Duration                                 : 1h 36mn
Overall bit rate                         : 2 411 Kbps
Movie name                               : MIRCrew by robbyrs
Writing application                      : VirtualDubMod 1.5.10.2 (build 2540/release)
Writing library                          : VirtualDubMod build 2540/release

Video
ID                                       : 0
Format                                   : MPEG-4 Visual
Format profile                           : Simple@L3
Format settings, BVOP                    : No
Format settings, QPel                    : No
Format settings, GMC                     : No warppoints
Format settings, Matrix                  : Default (H.263)
Codec ID                                 : XVID
Codec ID/Hint                            : XviD
Duration                                 : 1h 36mn
Bit rate                                 : 1 501 Kbps
Width                                    : 720 pixels
Height                                   : 304 pixels
Display aspect ratio                     : 2.35:1
Frame rate                               : 24.000 fps
Color space                              : YUV
Chroma subsampling                       : 4:2:0
Bit depth                                : 8 bits
Scan type                                : Progressive
Compression mode                         : Lossy
Bits/(Pixel*Frame)                       : 0.286
Stream size                              : 1.02 GiB (62%)
Writing library                          : XviD 64

Audio #1
ID                                       : 1
Format                                   : AC-3
Format/Info                              : Audio Coding 3
Mode extension                           : CM (complete main)
Codec ID                                 : 2000
Duration                                 : 1h 36mn
Bit rate mode                            : Constant
Bit rate                                 : 448 Kbps
Channel(s)                               : 6 channels
Channel positions                        : Front: L C R, Side: L R, LFE
Sampling rate                            : 48.0 KHz
Bit depth                                : 16 bits
Compression mode                         : Lossy
Stream size                              : 311 MiB (19%)
Alignment                                : Split accross interleaves
Interleave, duration                     : 42 ms (1.00 video frame)
Interleave, preload duration             : 500 ms

Audio #2
ID                                       : 2
Format                                   : AC-3
Format/Info                              : Audio Coding 3
Mode extension                           : CM (complete main)
Codec ID                                 : 2000
Duration                                 : 1h 36mn
Bit rate mode                            : Constant
Bit rate                                 : 448 Kbps
Channel(s)                               : 6 channels
Channel positions                        : Front: L C R, Side: L R, LFE
Sampling rate                            : 48.0 KHz
Bit depth                                : 16 bits
Compression mode                         : Lossy
Stream size                              : 311 MiB (19%)
Alignment                                : Split accross interleaves
Interleave, duration                     : 42 ms (1.00 video frame)
Interleave, preload duration             : 500 ms



[/spoiler]

[/center]

&&e4t67uk
Info: Per scaricare devi usare un client come uTorrent, o Azureus
AnnounceURL
udp://open.demonii.com:1337/announce
Hash 6cb3e79e36c1dc4156e24fa67cb4a1707fe8c17b
Peers seeds: 65 , leech: 46
Size 1.64 GB
Completato 38x
Aggiunto 02.03.15 - 07:03:09
Uploader   robbyrs
Votazione (Voti: 0)


Condividi questo bittorrent:


html/blog:


bbcode/forum:


Tramite bookmarks:



Aggiungi Commento