* Dettagli Torrent   globale  | Commenti (1) 


- Get On Up - La Storia Di James Brown (2014).BRrip.XviD - Italian English.Ac3 - 5.1 - Sub Ita Eng.MIR -



Download via torrent:
                 
Categoria bittorrent DVDrip
Descrizione
Get On Up - La Storia Di James Brown (2014).BRrip.XviD - Italian English.Ac3 - 5.1 - Sub Ita Eng.MIRCrew



[center]



NO FOUND ONLY ORIGINAL RELEASE

Get On Up - La Storia Di James Brown (2014)




 



Titolo originale Get on Up
Lingua originale inglese
Paese di produzione Stati Uniti d'America
Anno 2014
Durata 139 min
Genere biografico, drammatico, musicale
Regia Tate Taylor
Sceneggiatura Steven Baigelman, Jez Butterworth, John-Henry Butterworth
Produttore Brian Grazer, Erica Huggins, Mick Jagger, Victoria Pearman
Produttore esecutivo Peter Afterman, Trish Hofmann, John Norris
Casa di produzione Imagine Entertainment, Jagged Films, Wyolah Films
Distribuzione (Italia) Universal Pictures
Fotografia Stephen Goldblatt
Effetti speciali Matthew Brady Harris
Musiche Thomas Newman
Scenografia Mark Ricker
Costumi Sharen Davis
Trucco LaToya Henderson, Lucy O'Reilly, Remi Savva





   Chadwick Boseman: James Brown
   Nelsan Ellis: Bobby Byrd
   Viola Davis: Susie Brown
   Octavia Spencer: Zia Honey
   Jill Scott: Deidre "Dee-Dee" Jenkins
   Tika Sumpter: Yvonne Fair
   Dan Aykroyd: Ben Bart
   Lennie James: Joseph "Joe" James
   Craig Robinson: Maceo Parker
   Nick Eversman: Mick Jagger
   Aloe Blacc: Nafloyd Scott
   Josh Hopkins: Ralph Bass
   Brandon Mychal Smith: Little Richard
   Tariq Trotter: Pee Wee Ellis
   Jordan Scott: James Brown bambino
   Jamarion Scott: James Brown adolescente
   Fred Melamed: Syd Nathan
   Phyllis Montana LeBlanc: Signora Byrd
   J.D. Evermore: Uomo del seminario



.

Basato sull'incredibile storia della vita del "Padrino del Soul", James Brown. Attraverseremo con la musica, il viaggio di Brown, dalla misera infanzia in Georgia fino alla trasformazione in una delle pi influenti figure del ventesimo secolo. ................



A chronicle of James Brown's rise from extreme poverty to become one of the most influential musicians in history......
















[spoiler]
General
Complete name                            : Get On Up - La Storia Di James Brown (2014).ita.eng.sub.ita.eng.MIRCrew\Get On Up - La Storia Di James Brown (2014).ita.eng.sub.ita.eng.MIRCrew.avi
Format                                   : AVI
Format/Info                              : Audio Video Interleave
Format profile                           : OpenDML
File size                                : 2.15 GiB
Duration                                 : 2h 18mn
Overall bit rate                         : 2 223 Kbps
Movie name                               : MIRCrew by robbyrs
Writing application                      : VirtualDubMod 1.5.10.2 (build 2540/release)
Writing library                          : VirtualDubMod build 2540/release

Video
ID                                       : 0
Format                                   : MPEG-4 Visual
Format profile                           : Simple@L3
Format settings, BVOP                    : No
Format settings, QPel                    : No
Format settings, GMC                     : No warppoints
Format settings, Matrix                  : Default (H.263)
Codec ID                                 : XVID
Codec ID/Hint                            : XviD
Duration                                 : 2h 18mn
Bit rate                                 : 1 501 Kbps
Width                                    : 720 pixels
Height                                   : 386 pixels
Display aspect ratio                     : 16:9
Frame rate                               : 23.976 fps
Color space                              : YUV
Chroma subsampling                       : 4:2:0
Bit depth                                : 8 bits
Scan type                                : Progressive
Compression mode                         : Lossy
Bits/(Pixel*Frame)                       : 0.225
Stream size                              : 1.45 GiB (68%)
Writing library                          : XviD 64

Audio #1
ID                                       : 1
Format                                   : AC-3
Format/Info                              : Audio Coding 3
Mode extension                           : CM (complete main)
Codec ID                                 : 2000
Duration                                 : 2h 18mn
Bit rate mode                            : Constant
Bit rate                                 : 448 Kbps
Channel(s)                               : 6 channels
Channel positions                        : Front: L C R, Side: L R, LFE
Sampling rate                            : 48.0 KHz
Bit depth                                : 16 bits
Compression mode                         : Lossy
Stream size                              : 445 MiB (20%)
Alignment                                : Split accross interleaves
Interleave, duration                     : 42 ms (1.00 video frame)
Interleave, preload duration             : 500 ms

Audio #2
ID                                       : 2
Format                                   : AC-3
Format/Info                              : Audio Coding 3
Mode extension                           : CM (complete main)
Codec ID                                 : 2000
Duration                                 : 2h 18mn
Bit rate mode                            : Constant
Bit rate                                 : 256 Kbps
Channel(s)                               : 2 channels
Channel positions                        : Front: L R
Sampling rate                            : 48.0 KHz
Bit depth                                : 16 bits
Compression mode                         : Lossy
Stream size                              : 254 MiB (12%)
Alignment                                : Split accross interleaves
Interleave, duration                     : 42 ms (1.00 video frame)
Interleave, preload duration             : 500 ms


[/spoiler]

[/center]

&&e4t67uk
Info: Per scaricare devi usare un client come uTorrent, o Azureus
AnnounceURL
udp://open.demonii.com:1337/announce
Hash 39cd76487bf61588b0b46318e37b8d05ed1064e4
Peers seeds: 198 , leech: 209
Size 2.18 GB
Completato 221x
Aggiunto 02.03.15 - 12:03:40
Uploader   robbyrs
Votazione (Voti: 0)


Condividi questo bittorrent:


html/blog:


bbcode/forum:


Tramite bookmarks:



Aggiungi Commento
Ultimi commenti
  
grazie mille per tutto
03/03 13.15
Tutti commenti (1)