* Dettagli Torrent   globale  | Commenti (0) 


- Il dormiglione (Woody Allen 1973) - BDmux 720p x264 - Ita Eng AC3 - Multisub - Orgazmo -



Download via torrent:
                 
Categoria bittorrent DVDrip
Descrizione
Il Dormiglione (1973)



Titolo originale ╗ Sleeper
NazionalitÓ ╗ USA
Anno ╗ 1973
Durata ╗ 89'
Genere ╗ Commedia, Fantascienza
Regia ╗ Woody Allen

Cast:
Woody Allen, Diane Keaton, John Beck, Mary Gregory,
Don Keefer, John McLiam, Bartlett Robinson, Chris Forbes,
Marya Small, Peter Hobbs, Susan Miller, Lou Picetti.

Trama

Nel 1973 Miles Monroe, proprietario di un ristorante vegetariano e clarinettista jazz, Ŕ ricoverato d'urgenza per lancinanti dolori all'addome,
ma in attesa di essere sottoposto ad operazione chirurgica viene ibernato per errore. Nel 2173, i medici ne ritrovano il corpo e lo rianimano
con l'intenzione di convincerlo a combattere il grande Leader che adesso governa il mondo con i pi¨ duri sistemi dittatoriali. Miles, sfugge
ai sospetti della polizia fingendosi un robot, ma rimane coinvolto, suo malgrado, insieme alla poetessa Luna Schlosser, nel movimento della
resistenza capeggiato da Erno Windt. Catturato, liberato e fortunosamente guarito dal lavaggio del cervello, Miles, insieme con Luna, riceve
l'incarico di eliminare il dittatore: l'impresa Ŕ assai difficile, anche perchÚ del fantomatico Leader, vittima di un recente attentato,
Ŕ rimasto soltanto il naso che i suoi fedeli stanno clonando per ricostruirne la persona.


Screenshoots




Report del file

General
Unique ID: 141481838547536056182733789692413400566 (0x6A706933A9BF7031664362EC683CD5F6)
Complete name: Il dormiglione (Woody Allen 1973) - BDmux 720p x264 - Ita Eng AC3 - Multisub - Orgazmo.mkv
Format: Matroska
Format version: Version 4 / Version 2
File size: 3.04 GiB
Duration: 1h 27mn
Overall bit rate: 4 973 Kbps
Movie name: Il Dormiglione (Woody Allen, 1973) - Orgazmo
Encoded date: UTC 2015-03-01 11:22:49
Writing application: mkvmerge v6.2.0 ('Promised Land') built on Apr 28 2013 18:50:30
Writing library: libebml v1.3.0 + libmatroska v1.4.0

Video
ID: 1
Format: AVC
Format/Info: Advanced Video Codec
Format profile: [email protected]
Format settings, CABAC: Yes
Format settings, ReFrames: 5 frames
Codec ID: V_MPEG4/ISO/AVC
Duration: 1h 27mn
Bit rate: 4 586 Kbps
Width: 1 280 pixels
Height: 696 pixels
Display aspect ratio: 1.85:1
Frame rate mode: Constant
Frame rate: 23.976 fps
Color space: YUV
Chroma subsampling: 4:2:0
Bit depth: 8 bits
Scan type: Progressive
Bits/(Pixel*Frame): 0.215
Stream size: 2.74 GiB (90%)
Title: Il Dormiglione (Woody Allen, 1973)
Writing library: x264 core 129 r2230 1cffe9f
Encoding settings: cabac=1 / ref=5 / deblock=1:-1:-1 / analyse=0x3:0x113 / me=umh / subme=7 / psy=1 /
psy_rd=1.00:0.00 / mixed_ref=1 / me_range=16 / chroma_me=1 / trellis=1 / 8x8dct=1 / cqm=0 /
deadzone=21,11 / fast_pskip=1 / chroma_qp_offset=-2 / threads=12 / lookahead_threads=2 /
sliced_threads=0 / nr=0 / decimate=1 / interlaced=0 / bluray_compat=0 / constrained_intra=0 /
bframes=3 / b_pyramid=2 / b_adapt=2 / b_bias=0 / direct=3 / weightb=1 / open_gop=0 / weightp=2 /
keyint=250 / keyint_min=23 / scenecut=40 / intra_refresh=0 / rc_lookahead=40 / rc=2pass / mbtree=1 /
bitrate=4586 / ratetol=1.0 / qcomp=0.60 / qpmin=0 / qpmax=69 / qpstep=4 / cplxblur=20.0 / qblur=0.5 /
vbv_maxrate=50000 / vbv_bufsize=50000 / nal_hrd=none / ip_ratio=1.40 / aq=1:1.00
Language: English
Default: Yes
Forced: No

Audio #1
ID: 2
Format: AC-3
Format/Info: Audio Coding 3
Mode extension: CM (complete main)
Format settings, Endianness: Big
Codec ID: A_AC3
Duration: 1h 27mn
Bit rate mode: Constant
Bit rate: 192 Kbps
Channel count: 1 channel
Channel positions: Front: C
Sampling rate: 48.0 KHz
Bit depth: 16 bits
Compression mode: Lossy
Stream size: 120 MiB (4%)
Title: Italiano AC3 1.0 192Kbps
Language: Italian
Default: Yes
Forced: No

Audio #2
ID: 3
Format: AC-3
Format/Info: Audio Coding 3
Mode extension: CM (complete main)
Format settings, Endianness: Big
Codec ID: A_AC3
Duration: 1h 27mn
Bit rate mode: Constant
Bit rate: 192 Kbps
Channel count: 1 channel
Channel positions: Front: C
Sampling rate: 48.0 KHz
Bit depth: 16 bits
Compression mode: Lossy
Stream size: 120 MiB (4%)
Title: English AC3 1.0 192Kbps
Language: English
Default: No
Forced: No

Text #1
ID: 4
Format: UTF-8
Codec ID: S_TEXT/UTF8
Codec ID/Info: UTF-8 Plain Text
Title: Italiano
Language: Italian
Default: No
Forced: No

Text #2
ID: 5
Format: UTF-8
Codec ID: S_TEXT/UTF8
Codec ID/Info: UTF-8 Plain Text
Title: English (Hearing impaired)
Language: English
Default: No
Forced: No

Text #3
ID: 6
Format: UTF-8
Codec ID: S_TEXT/UTF8
Codec ID/Info: UTF-8 Plain Text
Title: Franšais
Language: French
Default: No
Forced: No

Text #4
ID: 7
Format: UTF-8
Codec ID: S_TEXT/UTF8
Codec ID/Info: UTF-8 Plain Text
Title: Espa˝ol
Language: Spanish
Default: No
Forced: No

Text #5
ID: 8
Format: UTF-8
Codec ID: S_TEXT/UTF8
Codec ID/Info: UTF-8 Plain Text
Title: Portuguŕs
Language: Portuguese
Default: No
Forced: No

Text #6
ID: 9
Format: UTF-8
Codec ID: S_TEXT/UTF8
Codec ID/Info: UTF-8 Plain Text
Title: Nederlands
Language: Dutch
Default: No
Forced: No

Text #7
ID: 10
Format: UTF-8
Codec ID: S_TEXT/UTF8
Codec ID/Info: UTF-8 Plain Text
Title: Suomi
Language: Finnish
Default: No
Forced: No

Text #8
ID: 11
Format: UTF-8
Codec ID: S_TEXT/UTF8
Codec ID/Info: UTF-8 Plain Text
Title: ČeÜtina
Language: Czech
Default: No
Forced: No




Info: Per scaricare devi usare un client come uTorrent, o Azureus
AnnounceURL
udp://tracker.tntvillage.scambioetico.org:2710/announce
Hash 73cb0c3271932f1948d7d9a5324d73fdf9149284
Peers seeds: 65 , leech: 61
Size 3.04 GB
Completato 320x
Aggiunto 05.03.15 - 14:03:36
Uploader   Orgazmo
Votazione (Voti: 0)


Condividi questo bittorrent:


html/blog:


bbcode/forum:


Tramite bookmarks:



Aggiungi Commento