* Dettagli Torrent   globale  | Commenti (0) 


- Il Nastro Bianco - The White Ribbon (2009).BRrip.XviD - Italian German.Ac3 - 5.1 - Sub Ita Eng Spa F -



Download via torrent:
                 
Categoria bittorrent DVDrip
Descrizione
Il Nastro Bianco - The White Ribbon (2009).BRrip.XviD - Italian German.Ac3 - 5.1 - Sub Ita Eng Spa Fre.MIRCrew


[center]



NO FOUND ONLY ORIGINAL RELEASE

Il Nastro Bianco - The White Ribbon (2009)



Premi:


   Palma d'oro al Festival di Cannes 2009
   3 European Film Awards 2009: miglior film, miglior regista e miglior sceneggiatura
   Golden Globe 2010: miglior film straniero



 



Titolo originale Das weiße Band - Eine deutsche Kindergeschichte
Paese di produzione Austria, Germania, Francia, Italia
Anno 2009
Durata 144 min
Colore B/N
Genere drammatico
Regia Michael Haneke
Sceneggiatura Michael Haneke
Casa di produzione X-Filme
Fotografia Christian Berger
Montaggio Monika Willi
Scenografia Christoph Kanter, Anja Müller e Heike Wolf





   Susanne Lothar: La levatrice
   Ulrich Tukur: Il barone
   Burghart Klaußner: Il pastore
   Josef Bierbichler: L'intendente
   Marisa Growaldt: La bracciante
   Christian Friedel: Il maestro
   Leonie Benesch: Eva
   Ursina Lardi: La baronessa Marie-Louise
   Steffi Kühnert: Anna
   Gabriela Maria Schmeide: Emma
   Rainer Bock: Il dottore
   Roxane Duran : Anna
   Maria-Victoria Dragus: Klara
   Leonard Proxauf: Martin
   Janina Fautz: Erna


.

Il film si svolge in un villaggio nel nord della Germania protestante, tra il 1913 e il 1914, poco prima dell'inizio della prima guerra mondiale. Nei mesi precedenti all'inizio della guerra, la vita del villaggio è sconvolta da alcuni strani accadimenti che appaiono inspiegabili: il medico del villaggio cade da cavallo e si ferisce a causa di una corda tesa nell'erba..........



Strange events happen in a small village in the north of Germany during the years just before World War I, which seem to be ritual punishment. The abused and suppressed children of the villagers seem to be at the heart of this mystery........
















[spoiler]
General
Complete name                            : Il Nastro Bianco - The White Ribbon (2009).ita.ger.multisub.MIRCrew\Il Nastro Bianco - The White Ribbon (2009) Das weiße Band.ita.ger.multisub.MIRCrew.avi
Format                                   : AVI
Format/Info                              : Audio Video Interleave
Format profile                           : OpenDML
File size                                : 2.23 GiB
Duration                                 : 2h 23mn
Overall bit rate                         : 2 224 Kbps
Movie name                               : MIRCrew by robbyrs
Writing application                      : VirtualDubMod 1.5.10.2 (build 2540/release)
Writing library                          : VirtualDubMod build 2540/release

Video
ID                                       : 0
Format                                   : MPEG-4 Visual
Format profile                           : Simple@L3
Format settings, BVOP                    : No
Format settings, QPel                    : No
Format settings, GMC                     : No warppoints
Format settings, Matrix                  : Default (H.263)
Codec ID                                 : XVID
Codec ID/Hint                            : XviD
Duration                                 : 2h 23mn
Bit rate                                 : 1 502 Kbps
Width                                    : 720 pixels
Height                                   : 386 pixels
Display aspect ratio                     : 16:9
Frame rate                               : 23.976 fps
Color space                              : YUV
Chroma subsampling                       : 4:2:0
Bit depth                                : 8 bits
Scan type                                : Progressive
Compression mode                         : Lossy
Bits/(Pixel*Frame)                       : 0.225
Stream size                              : 1.51 GiB (68%)
Writing library                          : XviD 64

Audio #1
ID                                       : 1
Format                                   : AC-3
Format/Info                              : Audio Coding 3
Mode extension                           : CM (complete main)
Codec ID                                 : 2000
Duration                                 : 2h 23mn
Bit rate mode                            : Constant
Bit rate                                 : 448 Kbps
Channel(s)                               : 6 channels
Channel positions                        : Front: L C R, Side: L R, LFE
Sampling rate                            : 48.0 KHz
Bit depth                                : 16 bits
Compression mode                         : Lossy
Stream size                              : 460 MiB (20%)
Alignment                                : Split accross interleaves
Interleave, duration                     : 42 ms (1.00 video frame)
Interleave, preload duration             : 500 ms

Audio #2
ID                                       : 2
Format                                   : AC-3
Format/Info                              : Audio Coding 3
Mode extension                           : CM (complete main)
Codec ID                                 : 2000
Duration                                 : 2h 23mn
Bit rate mode                            : Constant
Bit rate                                 : 256 Kbps
Channel(s)                               : 2 channels
Channel positions                        : Front: L R
Sampling rate                            : 44.1 KHz
Bit depth                                : 16 bits
Compression mode                         : Lossy
Stream size                              : 263 MiB (12%)
Alignment                                : Split accross interleaves
Interleave, duration                     : 42 ms (1.00 video frame)
Interleave, preload duration             : 500 ms



[/spoiler]

[/center]

&&e4t67uk
Info: Per scaricare devi usare un client come uTorrent, o Azureus
AnnounceURL
udp://open.demonii.com:1337/announce
Hash 6c1ffd3e9ab1147b8df0f40cdd91350a24bd72bf
Peers seeds: 66 , leech: 42
Size 2.23 GB
Completato 351x
Aggiunto 06.03.15 - 08:03:40
Uploader   robbyrs
Votazione (Voti: 0)


Condividi questo bittorrent:


html/blog:


bbcode/forum:


Tramite bookmarks:



Aggiungi Commento