* Dettagli Torrent   globale  | Commenti (0) 


- Black Snake Moan (2006).BRrip.XviD - Italian English.Ac3 - 5.1 - Sub Ita Eng.MIRCrew -



Download via torrent:
                 
Categoria bittorrent DVDrip
Descrizione
Black Snake Moan (2006).BRrip.XviD - Italian English.Ac3 - 5.1 - Sub Ita Eng.MIRCrew



[center]



NO FOUND ONLY ORIGINAL RELEASE

Black Snake Moan (2006)




 



Titolo originale Black Snake Moan
Paese di produzione USA
Anno 2007
Durata 116 min
Rapporto 2.35 : 1
Genere drammatico, musicale
Regia Craig Brewer
Soggetto Craig Brewer
Sceneggiatura Craig Brewer
Casa di produzione Paramount Classics, New Deal Productions, Southern Cross the Dog Productions
Fotografia Amy Vincent
Montaggio Billy Fox
Musiche Scott Bomar




   Samuel L. Jackson: Lazarus
   Christina Ricci: Rae
   Justin Timberlake: Ronnie
   S. Epatha Merkerson: Angela
   John Cothran Jr.: Reverendo R. L.
   David Banner: Tehronne
   Michael Raymond-James: Gill


.

La giovanissima Rae soffre di disturbi del comportamento sessuale, che si manifestano in un desiderio bruciante che la divora e che deve soddisfare, il che la rende un vero e proprio bersaglio per ogni uomo di un piccolo sobborgo agrario di Memphis, Tennessee, dove vive. A salvarla da un giro di vizio e depravazione ci penserà l'anziano Laz, solitario contadino di colore nonché bluesman, abbandonato dalla moglie, che trova Rae abbandonata e delirante vicino a casa.......



A God-fearing bluesman takes to a wild young woman who, as a victim of childhood sexual abuse, looks everywhere for love, never quite finding it.......
















[spoiler]
General
Complete name                            : Black Snake Moan (2006).ita.eng.sub.ita.eng.MIRCrew\Black Snake Moan (2006).ita.eng.sub.ita.eng.MIRCrew.avi
Format                                   : AVI
Format/Info                              : Audio Video Interleave
File size                                : 1.95 GiB
Duration                                 : 1h 55mn
Overall bit rate                         : 2 410 Kbps
Movie name                               : MIRCrew by robbyrs
Writing application                      : VirtualDubMod 1.5.10.2 (build 2540/release)
Writing library                          : VirtualDubMod build 2540/release

Video
ID                                       : 0
Format                                   : MPEG-4 Visual
Format profile                           : Simple@L3
Format settings, BVOP                    : No
Format settings, QPel                    : No
Format settings, GMC                     : No warppoints
Format settings, Matrix                  : Default (H.263)
Codec ID                                 : XVID
Codec ID/Hint                            : XviD
Duration                                 : 1h 55mn
Bit rate                                 : 1 500 Kbps
Width                                    : 720 pixels
Height                                   : 300 pixels
Display aspect ratio                     : 2.40:1
Frame rate                               : 23.976 fps
Color space                              : YUV
Chroma subsampling                       : 4:2:0
Bit depth                                : 8 bits
Scan type                                : Progressive
Compression mode                         : Lossy
Bits/(Pixel*Frame)                       : 0.290
Stream size                              : 1.21 GiB (62%)
Writing library                          : XviD 64

Audio #1
ID                                       : 1
Format                                   : AC-3
Format/Info                              : Audio Coding 3
Mode extension                           : CM (complete main)
Codec ID                                 : 2000
Duration                                 : 1h 55mn
Bit rate mode                            : Constant
Bit rate                                 : 448 Kbps
Channel(s)                               : 6 channels
Channel positions                        : Front: L C R, Side: L R, LFE
Sampling rate                            : 48.0 KHz
Bit depth                                : 16 bits
Compression mode                         : Lossy
Stream size                              : 370 MiB (19%)
Alignment                                : Split accross interleaves
Interleave, duration                     : 42 ms (1.00 video frame)
Interleave, preload duration             : 500 ms

Audio #2
ID                                       : 2
Format                                   : AC-3
Format/Info                              : Audio Coding 3
Mode extension                           : CM (complete main)
Codec ID                                 : 2000
Duration                                 : 1h 55mn
Bit rate mode                            : Constant
Bit rate                                 : 448 Kbps
Channel(s)                               : 6 channels
Channel positions                        : Front: L C R, Side: L R, LFE
Sampling rate                            : 48.0 KHz
Bit depth                                : 16 bits
Compression mode                         : Lossy
Stream size                              : 370 MiB (19%)
Alignment                                : Split accross interleaves
Interleave, duration                     : 42 ms (1.00 video frame)
Interleave, preload duration             : 500 ms




[/spoiler]

[/center]

Info: Per scaricare devi usare un client come uTorrent, o Azureus
AnnounceURL
udp://open.demonii.com:1337/announce
Hash fc74395145b1816f7c4e5c07c1306784a999bd4c
Peers seeds: 73 , leech: 45
Size 1.95 GB
Completato 444x
Aggiunto 06.03.15 - 10:03:59
Uploader   robbyrs
Votazione (Voti: 0)


Condividi questo bittorrent:


html/blog:


bbcode/forum:


Tramite bookmarks:



Aggiungi Commento