* Dettagli Torrent   globale  | Commenti (0) 


- Joe (2013).BRrip.XviD - Italian English.Ac3 - 5.1 - Sub Ita.MIRCrew -



Download via torrent:
                 
Categoria bittorrent DVDrip
Descrizione
Joe (2013).BRrip.XviD - Italian English.Ac3 - 5.1 - Sub Ita.MIRCrew


[center]



NO FOUND ONLY ORIGINAL RELEASE

Joe (2013)





 



Titolo originale Joe
Lingua originale inglese
Paese di produzione Stati Uniti d'America
Anno 2013
Durata 117 min
Genere drammatico
Regia David Gordon Green
Soggetto Larry Brown
Sceneggiatura Gary Hawkins
Produttore David Gordon Green, Lisa Muskat, Derrick Tseng, Christopher Woodrow, Alexander Uhlmann, Atilla Salih Ycer
Produttore esecutivo Maria Cestone, Molly Conners, Brad Coolidge, Melissa Coolidge, Jody Hill, Sarah E. Johnson, Todd J. Labarowski, Danny McBride, Hoyt David Morgan
Casa di produzione Worldview Entertainment, Dreambridge Films, Muskat Filmed Properties, Rough House, Super Troop Entertainment
Distribuzione (Italia) Movies Inspired
Fotografia Tim Orr
Montaggio Colin Patton
Musiche Jeff McIlwain
Scenografia Chris L. Spellman
Costumi Karen Malecki, Jill Newell
Trucco Jacenda Burkett




   Nicolas Cage: Joe Ransom
   Tye Sheridan: Gary Jones
   Ronnie Gene Blevins: Willie
   Heather Kafka: Lacy
   Sue Rock: Merle
   Adriene Mishler: Connie
   Dana Freitag: Sue
   Ulysses Lopez: poliziotto
   Brenda Isaacs Booth: madre Jones
   Aaron Spivey-Sorrells: Sammy
   Erin Elizabeth Reed: Cathy
   Anna Niemtschk: Dorothy
   Gary Poulter: Wade
   Brian Mays: Junior
   Aj Wilson McPhaul: Earl


Doppiatori italian

.

Gary Jones un quindicenne con una vita difficile; il padre alcolizzato picchia lui e la madre, e per questo motivo costretto a cambiare paese con la mamma, Gary e la sorella Dorothy. Arrivati in una cittadina del Texas, il ragazzo inizia a cercare lavoro e viene "assoldato" da Joe Ransom, un ex detenuto che vive la vita al massimo, dedito alla birra e alle belle signore, ma altruista coi deboli e scontroso con gli arroganti.................



An ex-con, who is the unlikeliest of role models, meets a 15-year-old boy and is faced with the choice of redemption or ruin.....
















[spoiler]
General
Complete name                            : Joe (2013).ita.eng.sub.ita.MIRCrew\Joe (2013).ita.eng.sub.ita.MIRCrew.avi
Format                                   : AVI
Format/Info                              : Audio Video Interleave
File size                                : 1.97 GiB
Duration                                 : 1h 57mn
Overall bit rate                         : 2 411 Kbps
Movie name                               : MIRCrew by robbyrs
Writing application                      : VirtualDubMod 1.5.10.2 (build 2540/release)
Writing library                          : VirtualDubMod build 2540/release

Video
ID                                       : 0
Format                                   : MPEG-4 Visual
Format profile                           : [email protected]
Format settings, BVOP                    : No
Format settings, QPel                    : No
Format settings, GMC                     : No warppoints
Format settings, Matrix                  : Default (H.263)
Codec ID                                 : XVID
Codec ID/Hint                            : XviD
Duration                                 : 1h 57mn
Bit rate                                 : 1 501 Kbps
Width                                    : 720 pixels
Height                                   : 304 pixels
Display aspect ratio                     : 2.35:1
Frame rate                               : 24.000 fps
Color space                              : YUV
Chroma subsampling                       : 4:2:0
Bit depth                                : 8 bits
Scan type                                : Progressive
Compression mode                         : Lossy
Bits/(Pixel*Frame)                       : 0.286
Stream size                              : 1.23 GiB (62%)
Writing library                          : XviD 64

Audio #1
ID                                       : 1
Format                                   : AC-3
Format/Info                              : Audio Coding 3
Mode extension                           : CM (complete main)
Codec ID                                 : 2000
Duration                                 : 1h 57mn
Bit rate mode                            : Constant
Bit rate                                 : 448 Kbps
Channel(s)                               : 6 channels
Channel positions                        : Front: L C R, Side: L R, LFE
Sampling rate                            : 48.0 KHz
Bit depth                                : 16 bits
Compression mode                         : Lossy
Stream size                              : 375 MiB (19%)
Alignment                                : Split accross interleaves
Interleave, duration                     : 42 ms (1.00 video frame)
Interleave, preload duration             : 500 ms

Audio #2
ID                                       : 2
Format                                   : AC-3
Format/Info                              : Audio Coding 3
Mode extension                           : CM (complete main)
Codec ID                                 : 2000
Duration                                 : 1h 57mn
Bit rate mode                            : Constant
Bit rate                                 : 448 Kbps
Channel(s)                               : 6 channels
Channel positions                        : Front: L C R, Side: L R, LFE
Sampling rate                            : 48.0 KHz
Bit depth                                : 16 bits
Compression mode                         : Lossy
Stream size                              : 375 MiB (19%)
Alignment                                : Split accross interleaves
Interleave, duration                     : 42 ms (1.00 video frame)
Interleave, preload duration             : 500 ms



[/spoiler]

[/center]

&&e4t67uk
Info: Per scaricare devi usare un client come uTorrent, o Azureus
AnnounceURL
udp://open.demonii.com:1337/announce
Hash fcc7657ecb730bf95d2ea299a352cc46deb4dcae
Peers seeds: 245 , leech: 138
Size 1.97 GB
Completato 1190x
Aggiunto 06.03.15 - 11:03:22
Uploader   robbyrs
Votazione (Voti: 0)


Condividi questo bittorrent:


html/blog:


bbcode/forum:


Tramite bookmarks:



Aggiungi Commento