* Dettagli Torrent   globale  | Commenti (4) 


- Stalingrad (2013).BRrip.XviD - Italian english.Ac3 - 5.1 - Sub Ita Eng Forced ita eng.MIRCrew -


Download via torrent:
                 
Categoria bittorrent DVDrip
Descrizione
Stalingrad (2013).BRrip.XviD - Italian english.Ac3 - 5.1 - Sub Ita Eng Forced ita eng.MIRCrew



File forced on release on italian and english for the original language

[center]



NO FOUND ONLY ORIGINAL RELEASE

Stalingrad (2013)




 



Titolo originale Сталинград
Lingua originale russo, tedesco
Paese di produzione Russia
Anno 2013
Durata 132 min
Genere azione, guerra
Regia Fedor Bondarchuk
Sceneggiatura Sergei Snezhkin, Ilya Tilkin
Produttore Sergey Melkumov, Dmitriy Rudovskiy, Steve Schklair, Alexander Rodnyansky
Casa di produzione Art Pictures Studio, Non-Stop Productions
Fotografia Maksim Osadchiy-Korytkovskiy
Montaggio Natalia Gorina
Musiche Angelo Badalamenti





   Thomas Kretschmann: maggiore Kahn
   Yanina Studilina: Masha
   Philippe Reinhardt: Gottfried
   Heiner Lauterbach:
   Pyotr Fyodorov: Capitano Gromov
   Mariya Smolnikova:
   Georges Devdariani: Klose


.

Autunno del 1942, la cittą di Stalingrado č devastata dalle truppe naziste. Dopo un'azione bellica non riuscita, alcuni soldati russi lottano per stabilirsi dentro ad un edificio che, situato nei pressi delle rive del Volga, risulta di strategica importanza per la difesa. In una casa di quello stesso stabile vive una giovane donna, rifiutatasi di lasciare la propria cittą dopo l'arrivo dei tedeschi, che stabilirą un rapporto d'affetto con cinque soldati...............................



Stalingrad has become hell and paradise for those who were worthy of awards, but the only reward they managed to get was love. How they won, and how they were not defeated, who they were and who was on the other side of the street, what secret they have taken away with them .......
















[spoiler]
General
Complete name                            : Stalingrad (2013).ita.eng.sub.ita.eng.forced.MIRCrew\Stalingrad (2013).ita.eng.sub.ita.eng.forced.MIRCrew.avi
Format                                   : AVI
Format/Info                              : Audio Video Interleave
Format profile                           : OpenDML
File size                                : 2.21 GiB
Duration                                 : 2h 10mn
Overall bit rate                         : 2 414 Kbps
Movie name                               : MIRCrew by robbyrs
Writing application                      : VirtualDubMod 1.5.10.2 (build 2540/release)
Writing library                          : VirtualDubMod build 2540/release

Video
ID                                       : 0
Format                                   : MPEG-4 Visual
Format profile                           : Simple@L3
Format settings, BVOP                    : No
Format settings, QPel                    : No
Format settings, GMC                     : No warppoints
Format settings, Matrix                  : Default (H.263)
Codec ID                                 : XVID
Codec ID/Hint                            : XviD
Duration                                 : 2h 10mn
Bit rate                                 : 1 500 Kbps
Width                                    : 720 pixels
Height                                   : 300 pixels
Display aspect ratio                     : 2.40:1
Frame rate                               : 23.976 fps
Color space                              : YUV
Chroma subsampling                       : 4:2:0
Bit depth                                : 8 bits
Scan type                                : Progressive
Compression mode                         : Lossy
Bits/(Pixel*Frame)                       : 0.290
Stream size                              : 1.37 GiB (62%)
Writing library                          : XviD 64

Audio #1
ID                                       : 1
Format                                   : AC-3
Format/Info                              : Audio Coding 3
Mode extension                           : CM (complete main)
Codec ID                                 : 2000
Duration                                 : 2h 10mn
Bit rate mode                            : Constant
Bit rate                                 : 448 Kbps
Channel(s)                               : 6 channels
Channel positions                        : Front: L C R, Side: L R, LFE
Sampling rate                            : 48.0 KHz
Bit depth                                : 16 bits
Compression mode                         : Lossy
Stream size                              : 419 MiB (19%)
Alignment                                : Split accross interleaves
Interleave, duration                     : 42 ms (1.00 video frame)
Interleave, preload duration             : 500 ms

Audio #2
ID                                       : 2
Format                                   : AC-3
Format/Info                              : Audio Coding 3
Mode extension                           : CM (complete main)
Codec ID                                 : 2000
Duration                                 : 2h 10mn
Bit rate mode                            : Constant
Bit rate                                 : 448 Kbps
Channel(s)                               : 6 channels
Channel positions                        : Front: L C R, Side: L R, LFE
Sampling rate                            : 48.0 KHz
Bit depth                                : 16 bits
Compression mode                         : Lossy
Stream size                              : 419 MiB (19%)
Alignment                                : Split accross interleaves
Interleave, duration                     : 42 ms (1.00 video frame)
Interleave, preload duration             : 500 ms




[/spoiler]

[/center]

&&e4t67uk
Info: Per scaricare devi usare un client come uTorrent, o Azureus
AnnounceURL
udp://open.demonii.com:1337/announce
Hash 219ddda7edc96565dc63500316953df866a85da4
Peers seeds: 151 , leech: 155
Size 2.22 GB
Completato 13x
Aggiunto 09.03.15 - 09:03:07
Uploader   robbyrs
Votazione (Voti: 0)


Condividi questo bittorrent:


html/blog:


bbcode/forum:


Tramite bookmarks:



Aggiungi Commento
Ultimi commenti
  
Ma anche grazie per il film sul sito!
16/03 08.22
  
Ciao Totti
Grazie 4000 per la delucidazione.
11/03 16.42
   bellapevoibellapevoi   
i Sub forced non sono altro che sottotitoli che autonomamente (lettore permettendo) entrano in funzione durante la visione la dove servono, per esempio su un cartello in lingua a noi sconosciuta o se preferiamo per esempio nel Film Avatar dove sul Pianeta Pandora gli abitanti cosi detti - Na' vi - parlano tutto fuorchč l'Italiano o l'inglese o qualsiasi altra lingua del nostro pianeta Terra...ed ecco che subentrano i Sub Forced per darci una chiara idea di cosa si stiano dicendo i personaggi sullo schermo...p.s l'ho copiato e incollato da un sito
11/03 15.35
Tutti commenti (4)