* Dettagli Torrent   globale  | Commenti (0) 


- Il Mistero del Falco (The Maltese Falcon, 1941) - BDmux 720p x264 - Ita eng AC3 - Multisub - Orgazmo -


Download via torrent:
                 
Categoria bittorrent DVDrip
Descrizione
Il Mistero del falco (1941)



Titolo originale ╗ The Maltese Falcon
NazionalitÓ ╗ USA
Anno ╗ 1941
Durata ╗ 100'
Genere ╗ Giallo
Regia ╗ John Huston

Cast:
Humphrey Bogart, Peter Lorre, Mary Astor, Sydney Greenstreet,
Ward Bond, Lee Patrick, Gladys George, Barton MacLane, Jerome Cowan,
Elisha Cook Jr., James Burke, Murray Alper, John F. Hamilton.

Trama

Sam Spade Ŕ un investigatore privato, il cui socio viene inaspettatamente ucciso. Il fatto accade dopo che Brigid O'Shaughnessy, presentatasi loro sotto falso nome, richiede aiuto a causa della scomparsa della propria sorella. I racconti della donna non si rivelano fondati. Spade Ŕ chiamato dunque a indagare su di una statuetta a forma di falcone, che si porta dietro una maledizione secolare. Tutti la vorrebbero: un avventuriero maldestro, un grassone pieno di soldi, una donna che racconta malissimo le bugie. Il detective indaga alla sua maniera. ╚ cinico, pochissimo eroico, non tratta le donne con il dovuto rispetto. Solo alla resa dei conti si dimostra onesto e persino un po' romantico. Un personaggio del tutto simile a un altro grande detective: il Philiph Marlowe inventato da Raymond Chandler. Personaggi tanto simili, i due detective, da essere entrambi resi immortali dallo stesso Bogart.


Screenshoots




Report del file

General
Unique ID: 182242705652687981967827339120832026300 (0x891AAB1C0487906B62B138279AD616BC)
Complete name: Il Mistero del Falco (The Maltese Falcon, 1941) - BDmux 720p x264 - Ita eng AC3 - Multisub - Orgazmo.mkv
Format: Matroska
Format version: Version 4 / Version 2
File size: 4.10 GiB
Duration: 1h 40mn
Overall bit rate: 5 843 Kbps
Movie name: Il Mistero del Falco (John Houston, 1941) - Orgazmo
Encoded date: UTC 2015-01-10 15:59:50
Writing application: mkvmerge v6.2.0 ('Promised Land') built on Apr 28 2013 18:50:30
Writing library: libebml v1.3.0 + libmatroska v1.4.0

Video
ID: 1
Format: AVC
Format/Info: Advanced Video Codec
Format profile: [email protected]
Format settings, CABAC: Yes
Format settings, ReFrames: 5 frames
Codec ID: V_MPEG4/ISO/AVC
Duration: 1h 40mn
Bit rate: 5 457 Kbps
Width: 992 pixels
Height: 720 pixels
Display aspect ratio: 1.378
Frame rate mode: Constant
Frame rate: 23.976 fps
Color space: YUV
Chroma subsampling: 4:2:0
Bit depth: 8 bits
Scan type: Progressive
Bits/(Pixel*Frame): 0.319
Stream size: 3.75 GiB (91%)
Title: Il Mistero del Falco (John Houston, 1941)
Writing library: x264 core 105 r1732 2b04482
Encoding settings: cabac=1 / ref=5 / deblock=1:0:0 / analyse=0x3:0x113 / me=umh / subme=7 / psy=1 / psy_rd=1.00:0.00 /
mixed_ref=1 / me_range=16 / chroma_me=1 / trellis=1 / 8x8dct=1 / cqm=0 / deadzone=21,11 / fast_pskip=0 / chroma_qp_offset=-2 /
threads=12 / sliced_threads=0 / nr=0 / decimate=1 / interlaced=0 / constrained_intra=0 / bframes=3 / b_pyramid=2 /
b_adapt=1 / b_bias=0 / direct=1 / weightb=1 / open_gop=0 / weightp=2 / keyint=250 / keyint_min=23 / scenecut=40 /
intra_refresh=0 / rc_lookahead=40 / rc=2pass / mbtree=1 / bitrate=5457 / ratetol=1.0 / qcomp=0.60 / qpmin=10 / qpmax=51 /
qpstep=4 / cplxblur=20.0 / qblur=0.5 / ip_ratio=1.40 / aq=1:1.00
Language: English
Default: Yes
Forced: No

Audio #1
ID: 2
Format: AC-3
Format/Info: Audio Coding 3
Mode extension: CM (complete main)
Format settings, Endianness: Big
Codec ID: A_AC3
Duration: 1h 40mn
Bit rate mode: Constant
Bit rate: 192 Kbps
Channel count: 1 channel
Channel positions: Front: C
Sampling rate: 48.0 KHz
Bit depth: 16 bits
Compression mode: Lossy
Stream size: 138 MiB (3%)
Title: Italiano AC3 1.0 192Kbps
Language: Italian
Default: Yes
Forced: No

Audio #2
ID: 3
Format: AC-3
Format/Info: Audio Coding 3
Mode extension: CM (complete main)
Format settings, Endianness: Big
Codec ID: A_AC3
Duration: 1h 40mn
Bit rate mode: Constant
Bit rate: 192 Kbps
Channel count: 1 channel
Channel positions: Front: C
Sampling rate: 48.0 KHz
Bit depth: 16 bits
Compression mode: Lossy
Stream size: 138 MiB (3%)
Title: English AC3 1.0 192Kbps
Language: English
Default: No
Forced: No

Text #1
ID: 4
Format: UTF-8
Codec ID: S_TEXT/UTF8
Codec ID/Info: UTF-8 Plain Text
Title: Italiano (Forced)
Language: Italian
Default: Yes
Forced: Yes

Text #2
ID: 5
Format: UTF-8
Codec ID: S_TEXT/UTF8
Codec ID/Info: UTF-8 Plain Text
Title: Italiano
Language: Italian
Default: No
Forced: No

Text #3
ID: 6
Format: UTF-8
Codec ID: S_TEXT/UTF8
Codec ID/Info: UTF-8 Plain Text
Title: English
Language: English
Default: No
Forced: No

Text #4
ID: 7
Format: UTF-8
Codec ID: S_TEXT/UTF8
Codec ID/Info: UTF-8 Plain Text
Title: Franšais
Language: French
Default: No
Forced: No

Text #5
ID: 8
Format: UTF-8
Codec ID: S_TEXT/UTF8
Codec ID/Info: UTF-8 Plain Text
Title: Deutsch
Language: German
Default: No
Forced: No

Text #6
ID: 9
Format: UTF-8
Codec ID: S_TEXT/UTF8
Codec ID/Info: UTF-8 Plain Text
Title: Espa˝ol
Language: Spanish
Default: No
Forced: No

Text #7
ID: 10
Format: UTF-8
Codec ID: S_TEXT/UTF8
Codec ID/Info: UTF-8 Plain Text
Title: Portuguŕs
Language: Portuguese
Default: No
Forced: No

Text #8
ID: 11
Format: UTF-8
Codec ID: S_TEXT/UTF8
Codec ID/Info: UTF-8 Plain Text
Title: Svenska
Language: Swedish
Default: No
Forced: No

Text #9
ID: 12
Format: UTF-8
Codec ID: S_TEXT/UTF8
Codec ID/Info: UTF-8 Plain Text
Title: Suomi
Language: Finnish
Default: No
Forced: No

Text #10
ID: 13
Format: UTF-8
Codec ID: S_TEXT/UTF8
Codec ID/Info: UTF-8 Plain Text
Title: Dansk
Language: Danish
Default: No
Forced: No

Text #11
ID: 14
Format: UTF-8
Codec ID: S_TEXT/UTF8
Codec ID/Info: UTF-8 Plain Text
Title: ČeÜtina
Language: Czech
Default: No
Forced: No




Info: Per scaricare devi usare un client come uTorrent, o Azureus
AnnounceURL
udp://tracker.tntvillage.scambioetico.org:2710/announce
Hash e736f0d789cb1381a97efd99725e5fd4738e3448
Peers seeds: 59 , leech: 22
Size 4.10 GB
Completato 215x
Aggiunto 10.03.15 - 11:03:38
Uploader   Orgazmo
Votazione (Voti: 0)


Condividi questo bittorrent:


html/blog:


bbcode/forum:


Tramite bookmarks:



Aggiungi Commento