* Dettagli Torrent   globale  | Commenti (0) 


- The Flash (2014) S01e08[Mux - 720p - H264 - Ita Eng Ac3 - Sub Ita Eng]DLMux iGM CREW GiuseppeTnT -



Download via torrent:
                 
Categoria bittorrent SerieTv
Descrizione
THE FLASH STAGIONE 1
WEB-DLMux 720p

Dual language ITA - ENG
Sub ITA - ENG
For more information
www.tntvillage.scambioetico.org
www.imdb.com/title/tt3107288/?ref_=nv_sr_1




.: Dati Serie :.


Nazione: Stati Uniti d'America
Anno: 2014 -  in produzione
Genere: azione, avventura
Stagioni 1
Episodi: 23
Durata: 45 min circa
Lingua: ITA - ENG
Ideatore: Greg Berlanti, Andrew Kreisberg, Geoff Johns
Cast:
• Grant Gustin: Barry Allen/Flash
•Candice Patton: Iris West
•Danielle Panabaker: Caitlin Snow
•Carlos Valdes: Cisco Ramon
•Tom Cavanagh: Harrison Wells
•Jesse L. Martin: Detective Joe West
•Rick Cosnett: Eddie Thawne/Professor Zoom

Barry Allen is a Central City police forensic scientist with a reasonably happy life despite the childhood trauma of a mysterious red and yellow being killing his mother, and framing his father. All that changes when a massive particle accelerator accident leads to Barry being struck by lightning in his lab. Coming out of coma nine months later, Barry and his new friends at STAR labs find that he now has the ability to move at superhuman speed. Furthermore, Barry learns that he is but one of many affected by that event, most of whom are using their powers for evil. Determined to make a difference, Barry dedicates his life fighting such threats as The Flash. While he gains allies he never expected, there are also secret forces determined also to aid and manipulate him for their own agenda.

The Flash è una serie televisiva statunitense spin-off di Arrow, sviluppata dai creatori di quest'ultima Greg Berlanti, Marc Guggenheim e Andrew Kreisberg. Basata sul personaggio di Flash, supereroe protagonista di una serie di fumetti pubblicata da DC Comics, si svolge nello stesso universo della serie madre.

Flash ha fatto il suo esordio nell'ottava puntata della serie tv più vista in Italia nel 2013 ("Arrow", per poi dar vita a uno spin-off ad hoc con lo stesso team produttivo proprio di "Arrow" (Greg Berlanti in testa). Ad interpretare il super-eroe che corre e si muove più veloce del lampo è stato chiamato Grant Gustin, già visto in "Glee" e al cinema nel film apocalittico "Affluenza", ambientato allo scoccare della recente crisi economica. Gustin vestirà i panni dello scienziato dalla doppia vita Barry Allen, il quale capita a Starling City per indagare su una serie di rapine che riguardano il suo passato. Allen-Flash è stato presente in "Arrow" lungo 3 episodi prima di sfrecciare nella propria serie "su misura". Geoff Johns, celebre fumettista della DC Comics, ha preso parte al progetto di spin-off del personaggio nato nel 1940 e già protagonista di una fortunata serie tv del 1990 con John Wesley Shipp nella tutina di foamglas del rosso giustiziere mascherato.



.: Screenshot :.







.: Caratteristiche Tecniche :.

General
Unique ID                                : 322672704567518460482477403870803533810 (0xF2C0809D0B3E0D0F4B965261556C1FF2)
Complete name                            :The.Flash.1X01.Una.Citta.Di.Eroi.ITA.ENG.720p.WEB-DLMux.H.264-iGM.GiuseppeTnT.mkv
Format                                   : Matroska
Format version                           : Version 2
File size                                : 1.50 GiB
Duration                                 : 42mn 44s
Overall bit rate                         : 5 031 Kbps
Encoded date                             : UTC 2015-01-21 00:07:06
Writing application                      : mkvmerge v5.1.0 ('And so it goes') built on Feb  1 2012 11:32:58
Writing library                          : libebml v1.2.2 + libmatroska v1.3.0

Video
ID                                       : 1
Format                                   : AVC
Format/Info                              : Advanced Video Codec
Format profile                           : [email protected]
Format settings, CABAC                   : No
Format settings, ReFrames                : 2 frames
Format settings, GOP                     : N=1
Muxing mode                              : Header stripping
Codec ID                                 : V_MPEG4/ISO/AVC
Duration                                 : 42mn 44s
Bit rate                                 : 4 355 Kbps
Width                                    : 1 280 pixels
Height                                   : 718 pixels
Display aspect ratio                     : 16:9
Frame rate                               : 25.000 fps
Color space                              : YUV
Chroma subsampling                       : 4:2:0
Bit depth                                : 8 bits
Scan type                                : Progressive
Bits/(Pixel*Frame)                       : 0.190
Stream size                              : 1.30 GiB (87%)
Language                                 : English
Default                                  : Yes
Forced                                   : No
Color primaries                          : BT.709-5, BT.1361, IEC 61966-2-4, SMPTE RP177
Transfer characteristics                 : BT.709-5, BT.1361
Matrix coefficients                      : BT.709-5, BT.1361, IEC 61966-2-4 709, SMPTE RP177

Audio #1
ID                                       : 2
Format                                   : AC-3
Format/Info                              : Audio Coding 3
Mode extension                           : CM (complete main)
Muxing mode                              : Header stripping
Codec ID                                 : A_AC3
Duration                                 : 42mn 44s
Bit rate mode                            : Constant
Bit rate                                 : 192 Kbps
Channel(s)                               : 2 channels
Channel positions                        : Front: L R
Sampling rate                            : 48.0 KHz
Bit depth                                : 16 bits
Compression mode                         : Lossy
Stream size                              : 58.7 MiB (4%)
Title                                    : ITA BY IGM CREW
Language                                 : Italian
Default                                  : Yes
Forced                                   : Yes

Audio #2
ID                                       : 3
Format                                   : AC-3
Format/Info                              : Audio Coding 3
Mode extension                           : CM (complete main)
Muxing mode                              : Header stripping
Codec ID                                 : A_AC3
Duration                                 : 42mn 44s
Bit rate mode                            : Constant
Bit rate                                 : 384 Kbps
Channel(s)                               : 6 channels
Channel positions                        : Front: L C R, Side: L R, LFE
Sampling rate                            : 48.0 KHz
Bit depth                                : 16 bits
Compression mode                         : Lossy
Stream size                              : 117 MiB (8%)
Title                                    : ENG
Language                                 : English
Default                                  : No
Forced                                   : No

Text #1
ID                                       : 4
Format                                   : UTF-8
Codec ID                                 : S_TEXT/UTF8
Codec ID/Info                            : UTF-8 Plain Text
Title                                    : ITA - Forced
Language                                 : Italian
Default                                  : Yes
Forced                                   : Yes

Text #2
ID                                       : 5
Format                                   : UTF-8
Codec ID                                 : S_TEXT/UTF8
Codec ID/Info                            : UTF-8 Plain Text
Language                                 : Italian
Default                                  : No
Forced                                   : No

Text #3
ID                                       : 6
Format                                   : UTF-8
Codec ID                                 : S_TEXT/UTF8
Codec ID/Info                            : UTF-8 Plain Text
Language                                 : English
Default                                  : No
Forced                                   : No



.: Ringraziamenti :.




Info: Per scaricare devi usare un client come uTorrent, o Azureus
AnnounceURL
http://tracker.tntvillage.scambioetico.org:2710/announce
Hash 2da61c579cd521968db9d255a33949ffd12ab1de
Peers seeds: 191 , leech: 55
Size 1.40 GB
Completato 2332x
Aggiunto 12.03.15 - 13:03:12
Uploader   ppb1
Votazione (Voti: 0)


Condividi questo bittorrent:


html/blog:


bbcode/forum:


Tramite bookmarks:



Aggiungi Commento