* Dettagli Torrent   globale  | Commenti (0) 


- Elizabethtown (2005).BRrip.XviD - Italian english.Ac3 - 5.0 - Sub Ita.MIRCrew -



Download via torrent:
                 
Categoria bittorrent DVDrip
Descrizione
Elizabethtown (2005).BRrip.XviD - Italian english.Ac3 - 5.0 - Sub Ita.MIRCrew



[center]



NO FOUND ONLY ORIGINAL RELEASE

Elizabethtown (2005)




 



Titolo originale Elizabethtown
Paese di produzione USA
Anno 2005
Durata 123 min
Rapporto 1,78:1
Genere commedia, drammatico, sentimentale
Regia Cameron Crowe
Soggetto Cameron Crowe
Sceneggiatura Cameron Crowe
Casa di produzione Paramount Pictures
Fotografia John Toll
Montaggio Mark Livolsi, David Moritz
Effetti speciali Allen Hall
Musiche Ryan Adams, Nancy Wilson + AA. VV.
Scenografia Clay A. Griffith





   Orlando Bloom: Drew Baylor
   Kirsten Dunst: Claire Colburn
   Susan Sarandon: Hollie Baylor
   Alec Baldwin: Phil DeVoss
   Bruce McGill: Bill Banyon
   Judy Greer: Heather Baylor
   Jessica Biel: Ellen Kishmore
   Paul Schneider: Jessie Baylor
   Loudon Wainwright: Zio Dale
   Gailard Sartain: Charles Dean
   Jed Rees: Chuck Hasboro
   Paula Deen: Zia Dora
   Dan Biggers: Zio Roy
   Alice Marie Crowe: Zia Lena
   Tim Devitt: Mitch Baylor



.

Oregon. Drew Baylor un giovane ed affermato designer di scarpe. Negli ultimi otto anni ha dedicato anima e corpo al suo lavoro, sacrificando la sua vita privata e i suoi affetti familiari per conseguire il successo lavorativo. Purtroppo per lui, l'ultimo suo progetto si trasforma in un colossale fiasco, capace di portare la sua azienda sull'orlo del fallimento. Drew viene presto licenziato, e anche la sua ragazza Ellen sembra non interessarsi pi a lui...............



After causing a loss of almost one billion dollars in his company, the shoe designer Drew Baylor decides to commit suicide. However, in the exact moment of his act of despair, he receives a phone call from his sister telling him that his beloved father had just died in Elizabethtown, and he should bring him back since his mother had problem with the relatives of his father.......
















[spoiler]
General
Complete name                            : Elizabethtown (2005).ita.eng.sub.eng.MIRCrew\Elizabethtown (2005).ita.eng.sub.eng.MIRCrew.avi
Format                                   : AVI
Format/Info                              : Audio Video Interleave
File size                                : 1.81 GiB
Duration                                 : 2h 3mn
Overall bit rate                         : 2 090 Kbps
Movie name                               : MIRCrew by robbyrs
Writing application                      : VirtualDubMod 1.5.10.2 (build 2540/release)
Writing library                          : VirtualDubMod build 2540/release

Video
ID                                       : 0
Format                                   : MPEG-4 Visual
Format profile                           : Simple@L3
Format settings, BVOP                    : No
Format settings, QPel                    : No
Format settings, GMC                     : No warppoints
Format settings, Matrix                  : Default (H.263)
Codec ID                                 : XVID
Codec ID/Hint                            : XviD
Duration                                 : 2h 3mn
Bit rate                                 : 1 501 Kbps
Width                                    : 720 pixels
Height                                   : 404 pixels
Display aspect ratio                     : 16:9
Frame rate                               : 23.976 fps
Color space                              : YUV
Chroma subsampling                       : 4:2:0
Bit depth                                : 8 bits
Scan type                                : Progressive
Compression mode                         : Lossy
Bits/(Pixel*Frame)                       : 0.215
Stream size                              : 1.30 GiB (72%)
Writing library                          : XviD 64

Audio #1
ID                                       : 1
Format                                   : AC-3
Format/Info                              : Audio Coding 3
Mode extension                           : CM (complete main)
Codec ID                                 : 2000
Duration                                 : 2h 3mn
Bit rate mode                            : Constant
Bit rate                                 : 384 Kbps
Channel(s)                               : 5 channels
Channel positions                        : Front: L C R, Side: L R
Sampling rate                            : 48.0 KHz
Bit depth                                : 16 bits
Compression mode                         : Lossy
Stream size                              : 340 MiB (18%)
Alignment                                : Split accross interleaves
Interleave, duration                     : 42 ms (1.00 video frame)
Interleave, preload duration             : 500 ms

Audio #2
ID                                       : 2
Format                                   : AC-3
Format/Info                              : Audio Coding 3
Mode extension                           : CM (complete main)
Codec ID                                 : 2000
Duration                                 : 2h 3mn
Bit rate mode                            : Constant
Bit rate                                 : 192 Kbps
Channel(s)                               : 2 channels
Channel positions                        : Front: L R
Sampling rate                            : 48.0 KHz
Bit depth                                : 16 bits
Compression mode                         : Lossy
Stream size                              : 170 MiB (9%)
Alignment                                : Split accross interleaves
Interleave, duration                     : 42 ms (1.00 video frame)
Interleave, preload duration             : 500 ms




[/spoiler]

[/center]

&&e4t67uk
Info: Per scaricare devi usare un client come uTorrent, o Azureus
AnnounceURL
udp://open.demonii.com:1337/announce
Hash 7448b610a7b9f8bcdf35382b99024625ab9dffc8
Peers seeds: 46 , leech: 28
Size 1.81 GB
Completato 312x
Aggiunto 16.03.15 - 13:03:30
Uploader   robbyrs
Votazione (Voti: 0)


Condividi questo bittorrent:


html/blog:


bbcode/forum:


Tramite bookmarks:



Aggiungi Commento