* Dettagli Torrent   globale  | Commenti (0) 


- Kissing Jessica Stein (2001).BRrip.XviD - Italian English.Ac3 - 5.1 - Sub Ita.Eng.MIRCrew -



Download via torrent:
                 
Categoria bittorrent DVDrip
Descrizione
Kissing Jessica Stein (2001).BRrip.XviD - Italian English.Ac3 - 5.1 - Sub Ita.Eng.MIRCrew


[center]



NO FOUND ONLY ORIGINAL RELEASE
Kissing Jessica Stein (2001)




 



Titolo originale Kissing Jessica Stein
Paese di produzione USA
Anno 2001
Durata 97 min

Rapporto 1,85:1
Genere commedia romantica
Regia Charles Herman-Wurmfeld
Sceneggiatura Heather Juergensen, Jennifer Westfeldt
Produttore Eden Wurmfeld, Brad Zions
Casa di produzione Fox Searchlight Pictures
Fotografia Lawrence Sher
Montaggio Kristy Jacobs Maslin, Greg Tillman
Musiche Marcelo Zarvos






   Jennifer Westfeldt: Jessica Stein
   Heather Juergensen: Helen Cooper
   Scott Cohen: Josh Myers
   Jackie Hoffman: Joan
   Tovah Feldshuh: Judy Stein

Doppiatori italiani

   Claudia Razzi: Jessica Stein
   Chiara Salerno: Helen Cooper
   Stefano Benassi: Josh Myers
   Barbara Castracane: Joan
   Maria Pia Di Meo: Judy Stein


.

New York. Jessica Stein una giovane giornalista, alle prese con una carriera che non l'appaga e una vita sentimentale a dir poco disastrosa. all'eterna ricerca del principe azzurro, in un periodo in cui tutte le persone attorno a lei sembrano invece aver trovato, finalmente, la loro anima gemella................



Jessica Stein is a single, straight, successful, journalist, part of a bonded Jewish family living in New York City, who finds herself not as straight as she thought when Jessica meets and begins an intense friendship with career woman Helen Cooper which ultimately leads to romance......















[spoiler]
General
Complete name                            : Kissing Jessica Stein (2001).ita.eng.sub.ita.eng.MIRCrew\Kissing Jessica Stein (2001).ita.eng.sub.ita.eng.MIRCrew.avi
Format                                   : AVI
Format/Info                              : Audio Video Interleave
File size                                : 1.63 GiB
Duration                                 : 1h 36mn
Overall bit rate                         : 2 410 Kbps
Movie name                               : MIRCrew by robbyrs
Writing application                      : VirtualDubMod 1.5.10.2 (build 2540/release)
Writing library                          : VirtualDubMod build 2540/release

Video
ID                                       : 0
Format                                   : MPEG-4 Visual
Format profile                           : Simple@L3
Format settings, BVOP                    : No
Format settings, QPel                    : No
Format settings, GMC                     : No warppoints
Format settings, Matrix                  : Default (H.263)
Codec ID                                 : XVID
Codec ID/Hint                            : XviD
Duration                                 : 1h 36mn
Bit rate                                 : 1 500 Kbps
Width                                    : 720 pixels
Height                                   : 386 pixels
Display aspect ratio                     : 16:9
Frame rate                               : 23.976 fps
Color space                              : YUV
Chroma subsampling                       : 4:2:0
Bit depth                                : 8 bits
Scan type                                : Progressive
Compression mode                         : Lossy
Bits/(Pixel*Frame)                       : 0.225
Stream size                              : 1.01 GiB (62%)
Writing library                          : XviD 64

Audio #1
ID                                       : 1
Format                                   : AC-3
Format/Info                              : Audio Coding 3
Mode extension                           : CM (complete main)
Codec ID                                 : 2000
Duration                                 : 1h 36mn
Bit rate mode                            : Constant
Bit rate                                 : 448 Kbps
Channel(s)                               : 6 channels
Channel positions                        : Front: L C R, Side: L R, LFE
Sampling rate                            : 48.0 KHz
Bit depth                                : 16 bits
Compression mode                         : Lossy
Stream size                              : 310 MiB (19%)
Alignment                                : Split accross interleaves
Interleave, duration                     : 42 ms (1.00 video frame)
Interleave, preload duration             : 500 ms

Audio #2
ID                                       : 2
Format                                   : AC-3
Format/Info                              : Audio Coding 3
Mode extension                           : CM (complete main)
Codec ID                                 : 2000
Duration                                 : 1h 36mn
Bit rate mode                            : Constant
Bit rate                                 : 448 Kbps
Channel(s)                               : 6 channels
Channel positions                        : Front: L C R, Side: L R, LFE
Sampling rate                            : 48.0 KHz
Bit depth                                : 16 bits
Compression mode                         : Lossy
Stream size                              : 310 MiB (19%)
Alignment                                : Split accross interleaves
Interleave, duration                     : 42 ms (1.00 video frame)
Interleave, preload duration             : 500 ms




[/spoiler]

[/center]

&&e4t67uk
Info: Per scaricare devi usare un client come uTorrent, o Azureus
AnnounceURL
udp://open.demonii.com:1337/announce
Hash dea1a9291687789506c6f9e3d2bd15c8603a9214
Peers seeds: 58 , leech: 39
Size 1.65 GB
Completato 328x
Aggiunto 16.03.15 - 13:03:41
Uploader   robbyrs
Votazione (Voti: 0)


Condividi questo bittorrent:


html/blog:


bbcode/forum:


Tramite bookmarks:



Aggiungi Commento