* Dettagli Torrent   globale  | Commenti (0) 


- Bitch Slap Le Superdotate (2009).DVDrip.XviD - Italian English.Ac3 5.1 - Sub.Ita.NUita.MIRCrew -


Download via torrent:
Categoria bittorrent BDRip
Descrizione
Visita

Bitch Slap Le Superdotate (2009).DVDrip.XviD - Italian English.Ac3  5.1 - Sub.Ita.NUita.MIRCrew



[center]



NO FOUND ONLY ORIGINAL RELEASE

Bitch Slap Le Superdotate (2009)




 



Titolo originale Bitch Slap
Paese di produzione USA
Anno 2009
Durata 109 min
Colore colore
Audio sonoro
Rapporto 2,35:1
Genere azione, thriller, exploitation
Regia Rick Jacobson
Sceneggiatura Eric Gruendemann
Rick Jacobson
Produttore Eric Gruendemann, Rick Jacobson, Carrie Tyson, Bernadette Joyce (produttore post-produzione), Brian Peck (produttore associato)
Casa di produzione Bombshell Pictures, IM Global
Distribuzione (Italia) Eagle Pictures
Fotografia Stuart Asbjornsen
Musiche John R. Graham
Costumi Rosalida Medina



   Julia Voth: Trixie/Mr.Pinky
   Erin Cummings: Hel
   America Olivo: Camero
   Michael Hurst: Gage
   Ron Melendez: Agente Fuchs
   William Gregory Lee: Hot Wire
   Minae Noji: Kinki
   Kevin Sorbo: Mr. Phoenix
   Lucy Lawless: Madre Superiora
   Renée O'Connor: Suor Batril
   Dennis Keiffer: MacDaddy
   Scott Hanley: Black Ice
   Mark Lutz: Deiter Von Vondervon
   Debbie Lee Carrington: Hot Pocket
   Zoë Bell: Rawhide

 
.

Tre ragazze, una spogliarellista di nome Trixie, una ex-detenuta che fa uso di droga e portata all'omicidio di nome Camero, e infine una ragazza che lavora per una grossa corporazione con soprannome Hel, arrivano in un remoto angolo del deserto dove si trova un nascondiglio con dei beni trafugati a uno spietato assassino armato di spada di nome Pinky, nota figura della malavita.........





When three curvaceous babes, stripper Trixe, business executive Hel, and the feisty ex-con Camero, arrive at a desert hideaway to steal a stash of diamonds from an underworld kingpin, things quickly spiral out of control. Allegiances are switched, truths are revealed, criminals are unmasked and nothing is quite what it seems as the fate of the world is precariously balanced among this trio of sexy femmes fatales............












[spoiler]
General
Complete name                            : Un Gelido Inverno - Winter's Bone (2010).ita.eng.sub.ita.eng.MIRCrew\Un Gelido Inverno - Winter's Bone (2010).ita.eng.sub.ita.eng.MIRCrew.avi
Format                                   : AVI
Format/Info                              : Audio Video Interleave
File size                                : 1.69 GiB
Duration                                 : 1h 40mn
Overall bit rate                         : 2 409 Kbps
Movie name                               : MIRCrew by robbyrs
Writing application                      : VirtualDubMod 1.5.10.2 (build 2540/release)
Writing library                          : VirtualDubMod build 2540/release

Video
ID                                       : 0
Format                                   : MPEG-4 Visual
Format profile                           : Simple@L3
Format settings, BVOP                    : No
Format settings, QPel                    : No
Format settings, GMC                     : No warppoints
Format settings, Matrix                  : Default (H.263)
Codec ID                                 : XVID
Codec ID/Hint                            : XviD
Duration                                 : 1h 40mn
Bit rate                                 : 1 500 Kbps
Width                                    : 720 pixels
Height                                   : 386 pixels
Display aspect ratio                     : 1.850
Frame rate                               : 23.976 fps
Color space                              : YUV
Chroma subsampling                       : 4:2:0
Bit depth                                : 8 bits
Scan type                                : Progressive
Compression mode                         : Lossy
Bits/(Pixel*Frame)                       : 0.225
Stream size                              : 1.05 GiB (62%)
Writing library                          : XviD 64

Audio #1
ID                                       : 1
Format                                   : AC-3
Format/Info                              : Audio Coding 3
Mode extension                           : CM (complete main)
Codec ID                                 : 2000
Duration                                 : 1h 40mn
Bit rate mode                            : Constant
Bit rate                                 : 448 Kbps
Channel(s)                               : 2 channels
Channel positions                        : Front: L R
Sampling rate                            : 48.0 KHz
Bit depth                                : 16 bits
Compression mode                         : Lossy
Stream size                              : 321 MiB (19%)
Alignment                                : Split accross interleaves
Interleave, duration                     : 42 ms (1.00 video frame)
Interleave, preload duration             : 500 ms

Audio #2
ID                                       : 2
Format                                   : AC-3
Format/Info                              : Audio Coding 3
Mode extension                           : CM (complete main)
Codec ID                                 : 2000
Duration                                 : 1h 39mn
Bit rate mode                            : Constant
Bit rate                                 : 448 Kbps
Channel(s)                               : 2 channels
Channel positions                        : Front: L R
Sampling rate                            : 48.0 KHz
Bit depth                                : 16 bits
Compression mode                         : Lossy
Stream size                              : 320 MiB (19%)
Alignment                                : Split accross interleaves
Interleave, duration                     : 42 ms (1.00 video frame)
Interleave, preload duration             : 500 ms




[/spoiler]

[/center]

Info: Per scaricare devi usare un client come uTorrent, o Azureus
AnnounceURL
http://tracker.tntvillage.scambioetico.org:2710/announce
Hash 686022d14180973b71f01daec75c7b71b46afd6b
Peers seeds: 114 , leech: 35
Size 1.49 GB
Completato 1409x
Aggiunto 06.04.15 - 14:04:23
Uploader   robbyrs
Votazione (Voti: 0)


Condividi questo bittorrent:


html/blog:


bbcode/forum:




Aggiungi Commento