* Dettagli Torrent   globale  | Commenti (1) 


- Third Person(2013)(1080p_H 264_Ita MD Aac) -


Download via torrent:
Categoria bittorrent Screener
Descrizione
[align=center]

Third Person







Titolo originale Third Person
Lingua originale inglese, italiano
Paese di produzione Regno Unito, Stati Uniti d'America, Germania, Belgio, Francia
Anno 2013
Durata 137 min
Colore colore
Audio sonoro
Rapporto 2,35 : 1
Genere drammatico, sentimentale
Regia Paul Haggis
Sceneggiatura Paul Haggis
Produttore Paul Haggis, Paul Breuls, Michael Nozik
Produttore esecutivo Nils Dünker, Fahar Faizaan, Arcadiy Golubovich, Andrew David Hopkins, Tim O'Hair, Guy Tannahill, Anatole Taubman
Casa di produzione Corsan, Hwy61
Distribuzione (Italia) Moviemax
Fotografia Gianfilippo Corticelli
Montaggio Jo Francis
Musiche Dario Marianelli
Scenografia Laurence Bennett
Costumi Sonoo Mishra
Trucco Tracey Levy




L'evoluzione delle storie d'amore di tre coppie, in tre città diverse: Roma, Parigi e New York.



Interpreti e personaggi

   Liam Neeson: Michael
   James Franco: Rick
   Olivia Wilde: Anna
   Mila Kunis: Julia
   Kim Basinger: Elaine
   Maria Bello: Theresa
   Adrien Brody: Sean
   Caroline Goodall: Dott. Gertner
   David Harewood: Jake Long
   Moran Atias: Monika
   Katy Louise Saunders: Gina
   Riccardo Scamarcio: Marco
   Vinicio Marchioni: Carlo
   Daniela Virgilio: Claire
   Fabrizio Biggio: Claude
   Vincent Riotta: Gerry
   Bob Messini: Giuseppe
   Francesco Apolloni: Impiegato
   Francesco Cataldo: Impiegato
   Gisella Marengo: Natalia
   Gianni Franco: Tassista

Doppiatori italiani

   Alessandro Rossi: Michael
   David Chevalier: Rick
   Chiara Colizzi: Anna
   Chiara Gioncardi: Julia
   Micaela Esdra: Elaine
   Francesca Fiorentini: Theresa
   Simone D'Andrea: Sean











Format                      : MPEG-4
Format profile              : Base Media / Version 2
Codec ID                    : mp42
File size                   : 2.08 GiB
Duration                    : 2h 16mn
Overall bit rate mode       : Variable
Overall bit rate            : 2 173 Kbps
Encoded date                : UTC 2015-04-05 17:02:47
Tagged date                 : UTC 2015-04-05 17:02:47

Video
ID                          : 1
Format                      : AVC
Format/Info                 : Advanced Video Codec
Format profile              : [email protected]
Format settings, CABAC      : Yes
Format settings, ReFrames   : 1 frame
Codec ID                    : avc1
Codec ID/Info               : Advanced Video Coding
Duration                    : 2h 16mn
Bit rate                    : 1 979 Kbps
Maximum bit rate            : 9 939 Kbps
Width                       : 1 920 pixels
Height                      : 812 pixels
Display aspect ratio        : 2.35:1
Frame rate mode             : Constant
Frame rate                  : 23.976 fps
Color space                 : YUV
Chroma subsampling          : 4:2:0
Bit depth                   : 8 bits
Scan type                   : Progressive
Bits/(Pixel*Frame)          : 0.053
Stream size                 : 1.89 GiB (91%)
Encoded date                : UTC 1970-01-01 00:00:00
Tagged date                 : UTC 2015-04-05 17:05:43

Audio
ID                          : 2
Format                      : AAC
Format/Info                 : Advanced Audio Codec
Format profile              : LC
Codec ID                    : 40
Duration                    : 2h 16mn
Bit rate mode               : Variable
Bit rate                    : 192 Kbps
Maximum bit rate            : 202 Kbps
Channel(s)                  : 2 channels
Channel positions           : Front: L R
Sampling rate               : 44.1 KHz
Compression mode            : Lossy
Stream size                 : 188 MiB (9%)
Title                       : IsoMedia File Produced by Google, 5-11-2011
Encoded date                : UTC 2015-04-05 17:04:39
Tagged date                 : UTC 2015-04-05 17:05:43

.:Seed & Banda:.

[SIZE=10]Fino a 250 KB/s H24

fino ai primi 20 completati poi stacco
[/SIZE]


[IMG]https://lh6.googleusercontent.com/-1FXYPBTngP4/UTyp1ufrKAI/AAAAAAAAAXA/mjEhjhMgMvU/s285/export.png[/IMG]

Info: Per scaricare devi usare un client come uTorrent, o Azureus
AnnounceURL
udp://open.demonii.com:1337/announce
Hash d5fd4318e8ab292667ea2a1c65c47a31814ef2bd
Peers seeds: 48 , leech: 14
Size 2.08 GB
Completato 64x
Aggiunto 07.04.15 - 15:04:58
Uploader   siste82
Votazione (Voti: 0)


Condividi questo bittorrent:


html/blog:


bbcode/forum:




Aggiungi Commento
Ultimi commenti
avatar   siste82siste82   
VIDEO 10 AUDIO 6,5 buona visione a tutti
07/04 15.02
Tutti commenti (1)