* Dettagli Torrent   globale  | Commenti (0) 


- Blacula (1972).H264.Italian.English.Ac3.sub.ita.eng.iCV-MIRCrew -


Download via torrent:
Categoria bittorrent BDRip
Descrizione
Blacula (1972).H264.Italian.English.Ac3.sub.ita.eng.iCV-MIRCrew

[center]


NO FOUND ONLY ORIGINAL RELEASE



My release is always in double track audio italian and Original audio
for select it use VLC or dvd player home
not use wmp

Blacula (1972)







Premi

   1973: Saturn Award per il miglior film horror


Titolo originale Blacula
Lingua originale inglese
Paese di produzione Stati Uniti
Anno 1972
Durata 93 min
Genere Horror
Regia William Craine
Soggetto Raymond Koenig, Joan Torres
Sceneggiatura Raymond Koenig, Joan Torres
Produttore Samuel Z. Arkoff
Casa di produzione American international Pictures, Power Productions
Fotografia John M. Stephens
Montaggio Allan Jacobs
Musiche Gene Page




   William Marshall: Mamuwalde/Blacula
   Vonetta McGee: Luva/Tina
   Denise Nicholas: Michelle
   Thalmus Rasulala: Dottor Gordon Thomas
   Gordon Pinsent: Sergente Jack Peters
   Charles Macaulay: Dracula
   Emily Yancy: Nancy
   Ketty Lester: Juanita Jones



1780: in Transilvania arriva il principe africano Mamuwalde, accompagnato dalla moglie Luva. Il principe deve incontrare il conte Dracula, per protestare contro la tratta degli schiavi africani. Dracula vampirizza il principe, dandogli il nome Blacula e condannandolo alla dannazione eterna, e ne uccide la moglie



An ancient African prince, turned into a vampire by Dracula himself, finds himself in modern Los Angeles.................









[spoiler]
General
Unique ID                                : 303369825715979829171041728640545556580 (0xE43AE7354BF9714F3AFE13D9E3998864)
Complete name                            : Blacula (1972).H264.ita.eng.sub.ita.eng.iCV-MIRCrew.mkv
Format                                   : Matroska
Format version                           : Version 2
File size                                : 1.09 GiB
Duration                                 : 1h 33mn
Overall bit rate                         : 1 669 Kbps
Movie name                               : VISIT www.icv-crew.org
Encoded date                             : UTC 2016-08-01 01:15:50
Writing application                      : Lavf54.63.100
Writing library                          : Lavf54.63.100
COPYRIGHT                                : robbyrs

Video
ID                                       : 1
Format                                   : AVC
Format/Info                              : Advanced Video Codec
Format profile                           : Main@L4.1
Format settings, CABAC                   : Yes
Format settings, ReFrames                : 2 frames
Codec ID                                 : V_MPEG4/ISO/AVC
Duration                                 : 1h 33mn
Bit rate                                 : 1 280 Kbps
Width                                    : 720 pixels
Height                                   : 390 pixels
Display aspect ratio                     : 16:9
Frame rate mode                          : Variable
Frame rate                               : 23.976 fps
Color space                              : YUV
Chroma subsampling                       : 4:2:0
Bit depth                                : 8 bits
Scan type                                : Progressive
Bits/(Pixel*Frame)                       : 0.190
Stream size                              : 834 MiB (75%)
Writing library                          : x264 core 130 r2273
Encoding settings                        : cabac=1 / ref=2 / deblock=1:0:0 / analyse=0x1:0x131 / me=hex / subme=7 / psy=1 / psy_rd=1.00:0.00 / mixed_ref=0 / me_range=16 / chroma_me=1 / trellis=1 / 8x8dct=0 / cqm=0 / deadzone=21,11 / fast_pskip=1 / chroma_qp_offset=-2 / threads=12 / lookahead_threads=2 / sliced_threads=0 / nr=0 / decimate=1 / interlaced=0 / bluray_compat=0 / constrained_intra=0 / bframes=3 / b_pyramid=0 / b_adapt=1 / b_bias=0 / direct=3 / weightb=1 / open_gop=0 / weightp=2 / keyint=230 / keyint_min=23 / scenecut=40 / intra_refresh=0 / rc_lookahead=40 / rc=2pass / mbtree=1 / bitrate=1280 / ratetol=1.0 / qcomp=0.60 / qpmin=10 / qpmax=69 / qpstep=4 / cplxblur=20.0 / qblur=0.5 / vbv_maxrate=24000 / vbv_bufsize=24000 / nal_hrd=none / ip_ratio=1.40 / aq=1:1.00
Language                                 : Italian
Default                                  : Yes
Forced                                   : No
DURATION                                 : 01:33:10.293000000
NUMBER_OF_FRAMES                         : 134033
NUMBER_OF_BYTES                          : 6590835879
_STATISTICS_WRITING_APP                  : mkvmerge v9.3.1 ('Mask Machine') 64bit
_STATISTICS_WRITING_DATE_UTC             : 2016-08-01 01:15:50
_STATISTICS_TAGS                         : BPS DURATION NUMBER_OF_FRAMES NUMBER_OF_BYTES

Audio #1
ID                                       : 2
Format                                   : AC-3
Format/Info                              : Audio Coding 3
Mode extension                           : CM (complete main)
Codec ID                                 : A_AC3
Duration                                 : 1h 33mn
Bit rate mode                            : Constant
Bit rate                                 : 192 Kbps
Channel(s)                               : 2 channels
Channel positions                        : Front: L R
Sampling rate                            : 48.0 KHz
Bit depth                                : 16 bits
Compression mode                         : Lossy
Delay relative to video                  : 1mn 5s
Stream size                              : 128 MiB (12%)
Language                                 : Italian
Default                                  : Yes
Forced                                   : No
DURATION                                 : 01:33:10.272000000
NUMBER_OF_FRAMES                         : 174696
NUMBER_OF_BYTES                          : 134166528
_STATISTICS_WRITING_APP                  : mkvmerge v9.3.1 ('Mask Machine') 64bit
_STATISTICS_WRITING_DATE_UTC             : 2016-08-01 01:15:50
_STATISTICS_TAGS                         : BPS DURATION NUMBER_OF_FRAMES NUMBER_OF_BYTES

Audio #2
ID                                       : 3
Format                                   : AC-3
Format/Info                              : Audio Coding 3
Mode extension                           : CM (complete main)
Codec ID                                 : A_AC3
Duration                                 : 1h 33mn
Bit rate mode                            : Constant
Bit rate                                 : 192 Kbps
Channel(s)                               : 2 channels
Channel positions                        : Front: L R
Sampling rate                            : 48.0 KHz
Bit depth                                : 16 bits
Compression mode                         : Lossy
Delay relative to video                  : 1mn 5s
Stream size                              : 128 MiB (12%)
Language                                 : English
Default                                  : No
Forced                                   : No
DURATION                                 : 01:33:10.272000000
NUMBER_OF_FRAMES                         : 174696
NUMBER_OF_BYTES                          : 447221760
_STATISTICS_WRITING_APP                  : mkvmerge v9.3.1 ('Mask Machine') 64bit
_STATISTICS_WRITING_DATE_UTC             : 2016-08-01 01:15:50
_STATISTICS_TAGS                         : BPS DURATION NUMBER_OF_FRAMES NUMBER_OF_BYTES

Text #1
ID                                       : 4
Format                                   : ASS
Codec ID                                 : S_TEXT/ASS
Codec ID/Info                            : Advanced Sub Station Alpha
Compression mode                         : Lossless
Title                                    : Sub Forced
Language                                 : Italian
Default                                  : Yes
Forced                                   : Yes
DURATION                                 : 00:04:39.312000000
NUMBER_OF_FRAMES                         : 52
NUMBER_OF_BYTES                          : 1557
_STATISTICS_WRITING_APP                  : mkvmerge v9.3.1 ('Mask Machine') 64bit
_STATISTICS_WRITING_DATE_UTC             : 2016-08-01 01:15:50
_STATISTICS_TAGS                         : BPS DURATION NUMBER_OF_FRAMES NUMBER_OF_BYTES

Text #2
ID                                       : 5
Format                                   : ASS
Codec ID                                 : S_TEXT/ASS
Codec ID/Info                            : Advanced Sub Station Alpha
Compression mode                         : Lossless
Title                                    : Sub Regular
Language                                 : English
Default                                  : No
Forced                                   : No
DURATION                                 : 01:30:03.064000000
NUMBER_OF_FRAMES                         : 969
NUMBER_OF_BYTES                          : 30717
_STATISTICS_WRITING_APP                  : mkvmerge v9.3.1 ('Mask Machine') 64bit
_STATISTICS_WRITING_DATE_UTC             : 2016-08-01 01:15:50
_STATISTICS_TAGS                         : BPS DURATION NUMBER_OF_FRAMES NUMBER_OF_BYTES

Menu
00:00:00.000                             : :00:00:00.000
00:06:45.905                             : :00:06:45.905
00:12:13.858                             : :00:12:13.858
00:18:12.800                             : :00:18:12.800
00:22:02.154                             : :00:22:02.154
00:28:33.587                             : :00:28:33.587
00:34:27.941                             : :00:34:27.941
00:42:13.030                             : :00:42:13.030
00:45:49.580                             : :00:45:49.580
00:52:18.052                             : :00:52:18.052
00:55:24.196                             : :00:55:24.196
01:02:22.781                             : :01:02:22.781
01:11:42.673                             : :01:11:42.673
01:16:47.186                             : :01:16:47.186
01:22:58.724                             : :01:22:58.724
01:30:37.307                             : :01:30:37.307


[/spoiler]

[/center]

Info: Per scaricare devi usare un client come uTorrent o Transmission
AnnounceURL
udp://tracker.coppersurfer.tk:6969/announce
Hash ce2a190d9f6d9b5cf2bca44841c8e6365f07ff05
Peers seeds: 23 , leech: 9
Size 1.09 GB
Completato 391x
Aggiunto 11.12.16 - 17:12:46
Uploader   robbyrs
Votazione (Voti: 1)


Condividi questo bittorrent:


html/blog:


bbcode/forum:




Aggiungi Commento