* Dettagli Torrent   globale  | Commenti (0) 


- Barbie e la ricerca dei cuccioli (2016).H264.Italian.English.Ac3.5.1.sub.ita.eng.iCV-MIRCrew -


Download via torrent:
Categoria bittorrent BDRip
Descrizione
Barbie & Her Sisters in a Puppy Chase - Barbie e la ricerca dei cuccioli (2016).H264.Italian.English.Ac3.5.1.sub.ita.eng.iCV-MIRCrew

[center]



NO FOUND ONLY ORIGINAL RELEASE



My release is always in double track audio italian and Original audio
for select it use VLC or dvd player home
not use wmp

Barbie e la ricerca dei cuccioli - Barbie & Her Sisters in a Puppy Chase (2016)







Titolo originale: Barbie & Her Sisters in a Puppy Chase
Paese: USA
Anno: 2016
Genere: Animazione
Durata. 75 min
Regia: Conrad Helten, Michael Goguen



Barbie, le sue sorelle e i loro amati cagnolini arrivano su un'isola paradisiaca per la competizione di ballo di Chelsea. Ben presto, però, perderanno i loro cuccioli e dovranno ritrovarli prima dell'inizio dello spettacolo, vivendo una grande avventura.



Barbie and her sisters discover everythingâ€ôs better when you do it together in this splashy, sun-kissed adventure! After the girls and their pets arrive at an island paradise for ...










[spoiler]
General
Unique ID                                : 107546432569788031216085838345465251280 (0x50E8B082679A2660EB841D33A75045D0)
Complete name                            : Barbie e la ricerca dei cuccioli (2016).H264.ita.eng.iCV-MIRCrew.mkv
Format                                   : Matroska
Format version                           : Version 2
File size                                : 1.07 GiB
Duration                                 : 1h 15mn
Overall bit rate                         : 2 043 Kbps
Movie name                               : VISIT www.icv-crew.org
Encoded date                             : UTC 2016-11-29 18:49:53
Writing application                      : Lavf54.63.100
Writing library                          : Lavf54.63.100
COPYRIGHT                                : robbyrs

Video
ID                                       : 1
Format                                   : AVC
Format/Info                              : Advanced Video Codec
Format profile                           : Main@L4.1
Format settings, CABAC                   : Yes
Format settings, ReFrames                : 2 frames
Codec ID                                 : V_MPEG4/ISO/AVC
Duration                                 : 1h 15mn
Bit rate                                 : 1 270 Kbps
Width                                    : 720 pixels
Height                                   : 404 pixels
Display aspect ratio                     : 16:9
Frame rate mode                          : Variable
Frame rate                               : 23.976 fps
Color space                              : YUV
Chroma subsampling                       : 4:2:0
Bit depth                                : 8 bits
Scan type                                : Progressive
Bits/(Pixel*Frame)                       : 0.182
Stream size                              : 665 MiB (60%)
Writing library                          : x264 core 130 r2273
Encoding settings                        : cabac=1 / ref=2 / deblock=1:0:0 / analyse=0x1:0x131 / me=hex / subme=7 / psy=1 / psy_rd=1.00:0.00 / mixed_ref=0 / me_range=16 / chroma_me=1 / trellis=1 / 8x8dct=0 / cqm=0 / deadzone=21,11 / fast_pskip=1 / chroma_qp_offset=-2 / threads=12 / lookahead_threads=2 / sliced_threads=0 / nr=0 / decimate=1 / interlaced=0 / bluray_compat=0 / constrained_intra=0 / bframes=3 / b_pyramid=0 / b_adapt=1 / b_bias=0 / direct=3 / weightb=1 / open_gop=0 / weightp=2 / keyint=230 / keyint_min=23 / scenecut=40 / intra_refresh=0 / rc_lookahead=40 / rc=2pass / mbtree=1 / bitrate=1270 / ratetol=1.0 / qcomp=0.60 / qpmin=10 / qpmax=69 / qpstep=4 / cplxblur=20.0 / qblur=0.5 / vbv_maxrate=24000 / vbv_bufsize=24000 / nal_hrd=none / ip_ratio=1.40 / aq=1:1.00
Language                                 : English
Default                                  : Yes
Forced                                   : No
DURATION                                 : 01:15:18.222000000
NUMBER_OF_FRAMES                         : 108329
NUMBER_OF_BYTES                          : 5013483553
_STATISTICS_WRITING_APP                  : mkvmerge v8.7.0 ('All of the above') 64bit
_STATISTICS_WRITING_DATE_UTC             : 2016-11-21 11:41:54
_STATISTICS_TAGS                         : BPS DURATION NUMBER_OF_FRAMES NUMBER_OF_BYTES

Audio #1
ID                                       : 2
Format                                   : AC-3
Format/Info                              : Audio Coding 3
Mode extension                           : CM (complete main)
Codec ID                                 : A_AC3
Duration                                 : 1h 15mn
Bit rate mode                            : Constant
Bit rate                                 : 384 Kbps
Channel(s)                               : 6 channels
Channel positions                        : Front: L C R, Side: L R, LFE
Sampling rate                            : 48.0 KHz
Bit depth                                : 16 bits
Compression mode                         : Lossy
Delay relative to video                  : 1mn 5s
Stream size                              : 207 MiB (19%)
Language                                 : Italian
Default                                  : Yes
Forced                                   : No
DURATION                                 : 01:15:18.240000000
NUMBER_OF_FRAMES                         : 141195
NUMBER_OF_BYTES                          : 216875520
_STATISTICS_WRITING_APP                  : mkvmerge v8.7.0 ('All of the above') 64bit
_STATISTICS_WRITING_DATE_UTC             : 2016-11-21 11:41:54
_STATISTICS_TAGS                         : BPS DURATION NUMBER_OF_FRAMES NUMBER_OF_BYTES

Audio #2
ID                                       : 3
Format                                   : AC-3
Format/Info                              : Audio Coding 3
Mode extension                           : CM (complete main)
Codec ID                                 : A_AC3
Duration                                 : 1h 15mn
Bit rate mode                            : Constant
Bit rate                                 : 384 Kbps
Channel(s)                               : 6 channels
Channel positions                        : Front: L C R, Side: L R, LFE
Sampling rate                            : 48.0 KHz
Bit depth                                : 16 bits
Compression mode                         : Lossy
Delay relative to video                  : 1mn 5s
Stream size                              : 207 MiB (19%)
Language                                 : English
Default                                  : No
Forced                                   : No
DURATION                                 : 01:15:18.208000000
NUMBER_OF_FRAMES                         : 141194
NUMBER_OF_BYTES                          : 361456640
_STATISTICS_WRITING_APP                  : mkvmerge v8.7.0 ('All of the above') 64bit
_STATISTICS_WRITING_DATE_UTC             : 2016-11-21 11:41:54
_STATISTICS_TAGS                         : BPS DURATION NUMBER_OF_FRAMES NUMBER_OF_BYTES


[/spoiler]

[/center]

Info: Per scaricare devi usare un client come uTorrent o Transmission
AnnounceURL
udp://tracker.coppersurfer.tk:6969/announce
Hash bc2d74d8167b0bddd4289acab8e702243ca570c6
Peers seeds: 78 , leech: 10
Size 1.07 GB
Completato 1467x
Aggiunto 14.12.16 - 18:12:58
Uploader   robbyrs
Votazione (Voti: 1)


Condividi questo bittorrent:


html/blog:


bbcode/forum:




Aggiungi Commento