* Dettagli Torrent   globale  | Commenti (0) 


- To Wong Foo Thanks For Everything Julie Newmar (1995).DVDrip.XviD - Italian.Rus.Ac3.5.1.sub.eng.iCV- -


Download via torrent:
Categoria bittorrent BDRip
Descrizione
To Wong Foo Thanks For Everything Julie Newmar (1995).DVDrip.XviD - Italian.Rus.Ac3.5.1.sub.eng.iCV-MIRCrew

[center]


NO FOUND ONLY ORIGINAL RELEASE



My release is always in double track audio italian and Original audio
for select it use VLC or dvd player home
not use wmp

To Wong Foo Thanks For Everything Julie Newmar (1995)







Titolo originale To Wong Foo, Thanks for Everything! Julie Newmar
Paese di produzione Stati Uniti
Anno 1995
Durata 108 min
Genere commedia
Regia Beeban Kidron
Sceneggiatura Douglas Carter Beane
Fotografia Steve Mason
Montaggio Andrew Mondshein
Musiche Rachel Portman
Scenografia Wynn Thomas



   Patrick Swayze: Vida Boheme
   Wesley Snipes: Noxeema Jackson
   John Leguizamo: Chi Chi Rodriguez
   Stockard Channing: Carol Ann
   Blythe Danner: Beatrice
   Arliss Howard: Virgil
   Jason London: Bobby Ray
   Chris Penn: sceriffo Dollard
   Melinda Dillon: Merna
   Beth Grant: Loretta
   Michael Vartan: Tommy
   Alice Drummond: Clara
   Jennifer Milmore: Bobbie Lee



Vida Boheme e Noxeema Jackson sono due drag queen di gran classe e carisma che si esibiscono in famosi locali gay newyorkesi. Grazie alla loro eleganza vincono un viaggio per Hollywood, dove concorreranno all'elezione di "Miss Drag Queen dell'anno"; tuttavia, quando conoscono Chi-Chi Rodriguez



Three drag queens travel cross-country until their car breaks down, leaving them stranded in a small town.











[spoiler]
General
Complete name                            : To Wong Foo Thanks For Everything Julie Newmar (1995).ita.rus-MIRCrew\To Wong Foo Thanks For Everything Julie Newmar (1995).ita.rus-MIRCrew.avi
Format                                   : AVI
Format/Info                              : Audio Video Interleave
File size                                : 1.48 GiB
Duration                                 : 1h 43mn
Overall bit rate                         : 2 039 Kbps
Movie name                               : ENCODED by.http://www.icv-crew.org
Writing application                      : VirtualDubMod 1.5.10.2 (build 2540/release)
Writing library                          : VirtualDubMod build 2540/release

Video
ID                                       : 0
Format                                   : MPEG-4 Visual
Format profile                           : Simple@L3
Format settings, BVOP                    : No
Format settings, QPel                    : No
Format settings, GMC                     : No warppoints
Format settings, Matrix                  : Default (H.263)
Codec ID                                 : XVID
Codec ID/Hint                            : XviD
Duration                                 : 1h 43mn
Bit rate                                 : 1 449 Kbps
Width                                    : 688 pixels
Height                                   : 376 pixels
Display aspect ratio                     : 16:9
Frame rate                               : 25.000 fps
Color space                              : YUV
Chroma subsampling                       : 4:2:0
Bit depth                                : 8 bits
Scan type                                : Progressive
Compression mode                         : Lossy
Bits/(Pixel*Frame)                       : 0.224
Stream size                              : 1.05 GiB (71%)
Writing library                          : XviD 64

Audio #1
ID                                       : 1
Format                                   : AC-3
Format/Info                              : Audio Coding 3
Mode extension                           : CM (complete main)
Codec ID                                 : 2000
Duration                                 : 1h 43mn
Bit rate mode                            : Constant
Bit rate                                 : 384 Kbps
Channel(s)                               : 6 channels
Channel positions                        : Front: L C R, Side: L R, LFE
Sampling rate                            : 48.0 KHz
Bit depth                                : 16 bits
Compression mode                         : Lossy
Stream size                              : 285 MiB (19%)
Alignment                                : Split accross interleaves
Interleave, duration                     : 40 ms (1.00 video frame)
Interleave, preload duration             : 500 ms

Audio #2
ID                                       : 2
Format                                   : AC-3
Format/Info                              : Audio Coding 3
Mode extension                           : CM (complete main)
Codec ID                                 : 2000
Duration                                 : 1h 43mn
Bit rate mode                            : Constant
Bit rate                                 : 192 Kbps
Channel(s)                               : 2 channels
Channel positions                        : Front: L R
Sampling rate                            : 48.0 KHz
Bit depth                                : 16 bits
Compression mode                         : Lossy
Stream size                              : 142 MiB (9%)
Alignment                                : Split accross interleaves
Interleave, duration                     : 40 ms (1.00 video frame)
Interleave, preload duration             : 500 ms


[/spoiler]

[/center]

Info: Per scaricare devi usare un client come uTorrent o Transmission
AnnounceURL
udp://tracker.coppersurfer.tk:6969/announce
Hash 60327ba8a41bdcad35f48806c233a475036a824d
Peers seeds: 16 , leech: 4
Size 1.48 GB
Completato 246x
Aggiunto 19.12.16 - 20:12:55
Uploader   robbyrs
Votazione (Voti: 0)


Condividi questo bittorrent:


html/blog:


bbcode/forum:




Aggiungi Commento