* Dettagli Torrent   globale  | Commenti (0) 


- Una vita esagerata (1997).H264.Italian.English.Ac3.5.1.sub.ita.eng.iCV-MIRCr -


Download via torrent:
Categoria bittorrent BDRip
Descrizione
A Life Less Ordinary  - Una vita esagerata (1997).H264.Italian.English.Ac3.5.1.sub.ita.eng.iCV-MIRCrew


[center]by www.icv-crew.org


NO FOUND ONLY ORIGINAL RELEASE



My release is always in double track audio italian and Original audio
for select it use VLC or dvd player home
not use wmp

Una vita esagerata - A Life Less Ordinary (1997)








Titolo originale A Life Less Ordinary
Paese di produzione Gran Bretagna, USA
Anno 1997
Durata 103 min
Genere commedia, sentimentale
Regia Danny Boyle
Fotografia Brian Tufano
Montaggio Masahiro Hirakubo
Musiche David Arnold, Beck, Bill Berry, Peter Buck, Noel Gallagher, Liam Howlett, Mike Mills, Michael Stipe




   Cameron Diaz: Celine Naville
   Ewan McGregor: Robert Lewis
   Holly Hunter: O'Reilly
   Delroy Lindo: Jackson
   Ian Holm: padre di Celine
   Dan Hedaya: Gabriel




Robert, un ingenuo guardiano appena licenziato, si vendica con il rapimento di Celine, figlia del padrone della fabbrica per cui lavorava. Lui è un perdente, completamente incapace di gestire un piano criminale..............



Ewan McGregor stars as a cleaning man in L.A. who takes his boss' daughter hostage after being fired and replaced by a robot. Two "angels" who are in charge of human relationships on earth,... .










[spoiler]
General
Unique ID                                : 222324453705498730113225556983248695437 (0xA74221DCD89FAEDBB71B7874A889B08D)
Complete name                            : Una vita esagerata - A Life Less Ordinary (1997).H264.ita.eng.sub.ita.eng.iCV-MIRCrew.mkv
Format                                   : Matroska
Format version                           : Version 2
File size                                : 1.59 GiB
Duration                                 : 1h 44mn
Overall bit rate                         : 2 185 Kbps
Movie name                               : Una vita esagerata - A Life Less Ordinary (1997).H264.ita.eng.sub.ita.eng.iCV-MIRCrew
Encoded date                             : UTC 2017-04-11T11:52:08Z
Writing application                      : mkvmerge v5.4.0 ('Piper') built on Mar 10 2012 13:34:39
Writing library                          : Lavf55.12.0

Video
ID                                       : 1
Format                                   : AVC
Format/Info                              : Advanced Video Codec
Format profile                           : Main@L4.0
Format settings, CABAC                   : Yes
Format settings, ReFrames                : 4 frames
Muxing mode                              : Header stripping
Codec ID                                 : V_MPEG4/ISO/AVC
Duration                                 : 1h 44mn
Bit rate                                 : 1 290 Kbps
Width                                    : 720 pixels
Height                                   : 302 pixels
Display aspect ratio                     : 2.40:1
Original display aspect ratio            : 2.40:1
Frame rate mode                          : Variable
Frame rate                               : 23.976 fps
Color space                              : YUV
Chroma subsampling                       : 4:2:0
Bit depth                                : 8 bits
Scan type                                : Progressive
Bits/(Pixel*Frame)                       : 0.247
Stream size                              : 928 MiB (57%)
Title                                    : Una vita esagerata - A Life Less Ordinary (1997).H264.ita.eng.sub.ita.eng.iCV-MIRCrew
Writing library                          : x264 core 142 r2479 dd79a61
Encoding settings                        : cabac=1 / ref=1 / deblock=1:0:0 / analyse=0x1:0x111 / me=hex / subme=2 / psy=1 / psy_rd=1.00:0.00 / mixed_ref=0 / me_range=16 / chroma_me=1 / trellis=0 / 8x8dct=0 / cqm=0 / deadzone=21,11 / fast_pskip=1 / chroma_qp_offset=0 / threads=12 / lookahead_threads=2 / sliced_threads=0 / nr=0 / decimate=1 / interlaced=0 / bluray_compat=0 / constrained_intra=0 / bframes=3 / b_pyramid=2 / b_adapt=1 / b_bias=0 / direct=1 / weightb=1 / open_gop=0 / weightp=1 / keyint=240 / keyint_min=24 / scenecut=40 / intra_refresh=0 / rc_lookahead=10 / rc=abr / mbtree=1 / bitrate=1290 / ratetol=1.0 / qcomp=0.60 / qpmin=0 / qpmax=69 / qpstep=4 / vbv_maxrate=20000 / vbv_bufsize=25000 / nal_hrd=none / filler=0 / ip_ratio=1.40 / aq=1:1.00
Language                                 : Italian
Default                                  : Yes
Forced                                   : No
Color primaries                          : BT.709-5, BT.1361, IEC 61966-2-4, SMPTE RP177
Transfer characteristics                 : BT.709-5, BT.1361
Matrix coefficients                      : BT.709-5, BT.1361, IEC 61966-2-4 709, SMPTE RP177

Audio #1
ID                                       : 2
Format                                   : AC-3
Format/Info                              : Audio Coding 3
Mode extension                           : CM (complete main)
Muxing mode                              : Header stripping
Codec ID                                 : A_AC3
Duration                                 : 1h 44mn
Bit rate mode                            : Constant
Bit rate                                 : 448 Kbps
Channel(s)                               : 6 channels
Channel positions                        : Front: L C R, Side: L R, LFE
Sampling rate                            : 48.0 KHz
Bit depth                                : 16 bits
Compression mode                         : Lossy
Delay relative to video                  : -5ms
Stream size                              : 334 MiB (20%)
Title                                    : Surround
Language                                 : Italian
Default                                  : Yes
Forced                                   : No

Audio #2
ID                                       : 3
Format                                   : AC-3
Format/Info                              : Audio Coding 3
Mode extension                           : CM (complete main)
Muxing mode                              : Header stripping
Codec ID                                 : A_AC3
Duration                                 : 1h 44mn
Bit rate mode                            : Constant
Bit rate                                 : 448 Kbps
Channel(s)                               : 6 channels
Channel positions                        : Front: L C R, Side: L R, LFE
Sampling rate                            : 48.0 KHz
Bit depth                                : 16 bits
Compression mode                         : Lossy
Delay relative to video                  : -5ms
Stream size                              : 334 MiB (20%)
Title                                    : Surround
Language                                 : English
Default                                  : No
Forced                                   : No

Text #1
ID                                       : 4
Format                                   : ASS
Codec ID                                 : S_TEXT/ASS
Codec ID/Info                            : Advanced Sub Station Alpha
Compression mode                         : Lossless
Language                                 : Italian
Default                                  : No
Forced                                   : No

Text #2
ID                                       : 5
Format                                   : ASS
Codec ID                                 : S_TEXT/ASS
Codec ID/Info                            : Advanced Sub Station Alpha
Compression mode                         : Lossless
Language                                 : Italian
Default                                  : No
Forced                                   : No

Text #3
ID                                       : 6
Format                                   : ASS
Codec ID                                 : S_TEXT/ASS
Codec ID/Info                            : Advanced Sub Station Alpha
Compression mode                         : Lossless
Language                                 : English
Default                                  : No
Forced                                   : No

Menu
00:00:00.000                             : :00:00:00.000
00:12:08.811                             : :00:12:08.644
00:26:37.888                             : :00:26:37.804
00:37:40.007                             : :00:37:39.924
00:52:21.471                             : :00:52:21.429
01:08:22.890                             : :01:08:22.807
01:23:53.319                             : :01:23:53.236
01:37:25.047                             : :01:37:25.005


[/spoiler]

[/center]

Info: Per scaricare devi usare un client come uTorrent o Transmission
AnnounceURL
udp://tracker.coppersurfer.tk:6969/announce
Hash 5cac27898de378cad88ffee764e5a0ce8a5c3815
Peers seeds: 32 , leech: 10
Size 1.59 GB
Completato 410x
Aggiunto 20.04.17 - 18:04:16
Uploader   robbyrs
Votazione (Voti: 1)


Condividi questo bittorrent:


html/blog:


bbcode/forum:




Aggiungi Commento