* Dettagli Torrent   globale  | Commenti (0) 


- XX - Donne da morire (2017).H264.Italian.English.Ac3.5.1.sub.ita.NUita.iCV-MIRCrew -


Download via torrent:
Categoria bittorrent BDRip
Descrizione
XX - Donne da morire (2017).H264.Italian.English.Ac3.5.1.sub.ita.NUita.iCV-MIRCrew


[center]by www.icv-crew.org


NO FOUND ONLY ORIGINAL RELEASE



My release is always in double track audio italian and Original audio
for select it use VLC or dvd player home
not use wmp

XX - Donne da morire (2017)

PRESENTI ANCHE i SOTTOTITOLI

ESTERNI IN SRT (ita)







Titolo Originale: XX
Regia: Roxanne Benjamin, Karyn KusamaDonne da Morire (2017)
Genere: Horror
Nazione: USA
Durata: 1h 20?



Natalie Brown, Jonathan Watton, Peter DaCunha



E’ un racconto horror al femminile, è composto da quattro storie dark con protagoniste quattro assassine.................



XX is a new horror anthology with a gender twist - all segments will be helmed by female directors and will star female leads. The directors have been given free creative rein within budget and time constraints, but all of the segments themselves will involve the horror genre.












[spoiler]
General
Unique ID                                : 128686258868923527285001798610116715927 (0x60D0126A92D1A7530CB77250CDCCA597)
Complete name                            : XX - Donne da morire (2017).H264.ita.eng.sub.ita.iCV-MIRCrew.mkv
Format                                   : Matroska
Format version                           : Version 2
File size                                : 1.24 GiB
Duration                                 : 1h 20mn
Overall bit rate                         : 2 200 Kbps
Movie name                               : www.icv-crew.org
Encoded date                             : UTC 2017-07-14 10:36:08
Writing application                      : Lavf54.63.100
Writing library                          : Lavf54.63.100
COPYRIGHT                                : robbyrs

Video
ID                                       : 1
Format                                   : AVC
Format/Info                              : Advanced Video Codec
Format profile                           : Main@L4.1
Format settings, CABAC                   : Yes
Format settings, ReFrames                : 2 frames
Codec ID                                 : V_MPEG4/ISO/AVC
Duration                                 : 1h 20mn
Bit rate                                 : 1 290 Kbps
Width                                    : 720 pixels
Height                                   : 304 pixels
Display aspect ratio                     : 2.40:1
Frame rate mode                          : Variable
Frame rate                               : 23.976 fps
Color space                              : YUV
Chroma subsampling                       : 4:2:0
Bit depth                                : 8 bits
Scan type                                : Progressive
Bits/(Pixel*Frame)                       : 0.246
Stream size                              : 728 MiB (57%)
Writing library                          : x264 core 130 r2273
Encoding settings                        : cabac=1 / ref=2 / deblock=1:0:0 / analyse=0x1:0x131 / me=hex / subme=7 / psy=1 / psy_rd=1.00:0.00 / mixed_ref=0 / me_range=16 / chroma_me=1 / trellis=1 / 8x8dct=0 / cqm=0 / deadzone=21,11 / fast_pskip=1 / chroma_qp_offset=-2 / threads=12 / lookahead_threads=2 / sliced_threads=0 / nr=0 / decimate=1 / interlaced=0 / bluray_compat=0 / constrained_intra=0 / bframes=3 / b_pyramid=0 / b_adapt=1 / b_bias=0 / direct=3 / weightb=1 / open_gop=0 / weightp=2 / keyint=230 / keyint_min=23 / scenecut=40 / intra_refresh=0 / rc_lookahead=40 / rc=abr / mbtree=1 / bitrate=1290 / ratetol=1.0 / qcomp=0.60 / qpmin=10 / qpmax=69 / qpstep=4 / vbv_maxrate=24000 / vbv_bufsize=24000 / nal_hrd=none / ip_ratio=1.40 / aq=1:1.00
Default                                  : Yes
Forced                                   : No
DURATION                                 : 01:20:46.800000000
NUMBER_OF_FRAMES                         : 116207
NUMBER_OF_BYTES                          : 4361312448
_STATISTICS_WRITING_APP                  : mkvmerge v9.5.0 ('Quiet Fire') 32bit
_STATISTICS_WRITING_DATE_UTC             : 2017-07-09 18:50:45
_STATISTICS_TAGS                         : BPS DURATION NUMBER_OF_FRAMES NUMBER_OF_BYTES

Audio #1
ID                                       : 2
Format                                   : AC-3
Format/Info                              : Audio Coding 3
Mode extension                           : CM (complete main)
Codec ID                                 : A_AC3
Duration                                 : 1h 20mn
Bit rate mode                            : Constant
Bit rate                                 : 448 Kbps
Channel(s)                               : 6 channels
Channel positions                        : Front: L C R, Side: L R, LFE
Sampling rate                            : 48.0 KHz
Bit depth                                : 16 bits
Compression mode                         : Lossy
Delay relative to video                  : 1mn 5s
Stream size                              : 259 MiB (20%)
Language                                 : Italian
Default                                  : No
Forced                                   : No
DURATION                                 : 01:20:46.816000000
NUMBER_OF_FRAMES                         : 151463
NUMBER_OF_BYTES                          : 387745280
_STATISTICS_WRITING_APP                  : mkvmerge v9.5.0 ('Quiet Fire') 32bit
_STATISTICS_WRITING_DATE_UTC             : 2017-07-09 18:50:45
_STATISTICS_TAGS                         : BPS DURATION NUMBER_OF_FRAMES NUMBER_OF_BYTES

Audio #2
ID                                       : 3
Format                                   : AC-3
Format/Info                              : Audio Coding 3
Mode extension                           : CM (complete main)
Codec ID                                 : A_AC3
Duration                                 : 1h 20mn
Bit rate mode                            : Constant
Bit rate                                 : 448 Kbps
Channel(s)                               : 6 channels
Channel positions                        : Front: L C R, Side: L R, LFE
Sampling rate                            : 48.0 KHz
Bit depth                                : 16 bits
Compression mode                         : Lossy
Delay relative to video                  : 1mn 5s
Stream size                              : 259 MiB (20%)
Language                                 : English
Default                                  : No
Forced                                   : No
DURATION                                 : 01:20:46.827000000
NUMBER_OF_FRAMES                         : 454390
NUMBER_OF_BYTES                          : 914232820
_STATISTICS_WRITING_APP                  : mkvmerge v9.5.0 ('Quiet Fire') 32bit
_STATISTICS_WRITING_DATE_UTC             : 2017-07-09 18:50:45
_STATISTICS_TAGS                         : BPS DURATION NUMBER_OF_FRAMES NUMBER_OF_BYTES

Text #1
ID                                       : 4
Format                                   : ASS
Codec ID                                 : S_TEXT/ASS
Codec ID/Info                            : Advanced Sub Station Alpha
Compression mode                         : Lossless
Title                                    : Sub. Ita. Forced
Language                                 : Italian
Default                                  : Yes
Forced                                   : Yes
DURATION                                 : 00:58:46.814000000
NUMBER_OF_FRAMES                         : 21
NUMBER_OF_BYTES                          : 461
_STATISTICS_WRITING_APP                  : mkvmerge v9.5.0 ('Quiet Fire') 32bit
_STATISTICS_WRITING_DATE_UTC             : 2017-07-09 18:50:45
_STATISTICS_TAGS                         : BPS DURATION NUMBER_OF_FRAMES NUMBER_OF_BYTES

Text #2
ID                                       : 5
Format                                   : ASS
Codec ID                                 : S_TEXT/ASS
Codec ID/Info                            : Advanced Sub Station Alpha
Compression mode                         : Lossless
Title                                    : Sub. Ita.
Language                                 : Italian
Default                                  : No
Forced                                   : No
DURATION                                 : 01:11:08.263000000
NUMBER_OF_FRAMES                         : 670
NUMBER_OF_BYTES                          : 23145
_STATISTICS_WRITING_APP                  : mkvmerge v9.5.0 ('Quiet Fire') 32bit
_STATISTICS_WRITING_DATE_UTC             : 2017-07-09 18:50:45
_STATISTICS_TAGS                         : BPS DURATION NUMBER_OF_FRAMES NUMBER_OF_BYTES

Menu
00:00:00.000                             : 01)00:00:00:000
00:07:08.052                             : 02)00:07:08:052
00:13:03.991                             : 03)00:13:03:991
00:21:46.513                             : 04)00:21:46:513
00:27:04.039                             : 05)00:27:04:039
00:33:13.992                             : 06)00:33:13:992
00:37:54.105                             : 07)00:37:54:105
00:41:44.502                             : 000:41:44:502
00:46:56.021                             : 09)00:46:56:021
00:51:10.901                             : 10)00:51:10:901
01:00:03.016                             : 11)01:00:03:016
01:07:48.272                             : 12)01:07:48:272


[/spoiler]

[/center]

Info: Per scaricare devi usare un client come uTorrent o Transmission
AnnounceURL
udp://tracker.coppersurfer.tk:6969/announce
Hash e2e972dd18d88c874b37287dcea3c10bb0b24a1a
Peers seeds: 287 , leech: 80
Size 1.24 GB
Completato 2808x
Aggiunto 15.07.17 - 07:07:12
Uploader   robbyrs
Votazione (Voti: 1)


Condividi questo bittorrent:


html/blog:


bbcode/forum:




Aggiungi Commento