* Dettagli Torrent   globale  | Commenti (0) 


- Scandal.6x11-12.ITA-ENG.1080p.WEBMux.DD5.1.x264-NovaRip -


Download via torrent:
Categoria bittorrent SerieTv
Descrizione
[center]
GIUSEPPEiCV & LITTLELINX
HANNO IL PIACERE DI PRESENTARE

SCANDAL
STAGIONE 6
WEBMUX 1080p
ITA - ENG AC3 5.1





[b].: Dati Serie :.


Titolo: Scandal
Titolo originale: Scandal
Anno: 2017
Genere: drammatico, politico
Episodi: 16
Durata episodio: ~ 45 minuti
Creatore: Shonda Rhimes
Cast: Kerry Washington, Darby Stanchfield, Katie Lowes, Guillermo Díaz, Tony Goldwyn, Jeff Perry, Bellamy Young, Joshua Malina

La nuova stagione di Scandal si apre con l'addio dei gladiatori in doppiopetto ad un membro del loro team: Harrison, infatti, e' morto e la sua scomparsa sconvolgera' profondamente le persone che gli sono state accanto finora.
Ma non e' il solo a perdere la vita: anche il figlio del Presidente Fitz e' morto e questo comporta un drastico cambiamento nella first lady Mellie.
Allo stesso tempo Olivia ha fatto perdere ogni traccia di se' e si e' allontanata da Washington, la citta' degli scandali che le ha cambiato la vita e che le ha anche fatto trovare il vero amore.
Lecito chiedersi se Olivia Pope tornera' a combattere con i suoi gladiatori o se ha abbandonato la sua arena per sempre.

[/b]
.: Screenshot :.

 



.: Caratteristiche Tecniche :.

[spoiler]

[left]
Scandal.6x01.Sopravvivenza.Del.Piu.Adatto.ITA-ENG.1080p.WEBMux.DD5.1.x264-NovaRip.mkv
Format                                   : Matroska
Format version                           : Version 2
File size                                : 1.77 GiB
Duration                                 : 41mn 46s
Overall bit rate                         : 6 073 Kbps
Encoded date                             : UTC 2017-06-10 08:20:11
Writing application                      : mkvmerge v8.5.2 ('Crosses') 64bit
Writing library                          : libebml v1.3.3 + libmatroska v1.4.4
DURATION                                 : 00:40:50.237000000
NUMBER_OF_FRAMES                         : 893
NUMBER_OF_BYTES                          : 27201
_STATISTICS_WRITING_APP                  : mkvmerge v8.5.2 ('Crosses') 64bit
_STATISTICS_WRITING_DATE_UTC             : 2017-06-10 08:20:11
_STATISTICS_TAGS                         : BPS DURATION NUMBER_OF_FRAMES NUMBER_OF_BYTES

Video
ID                                       : 1
Format                                   : AVC
Format/Info                              : Advanced Video Codec
Format profile                           : High@L4.1
Format settings, CABAC                   : Yes
Format settings, ReFrames                : 4 frames
Codec ID                                 : V_MPEG4/ISO/AVC
Duration                                 : 41mn 46s
Bit rate                                 : 5 087 Kbps
Width                                    : 1 920 pixels
Height                                   : 1 080 pixels
Display aspect ratio                     : 16:9
Frame rate                               : 25.000 fps
Original frame rate                      : 23.976 fps
Color space                              : YUV
Chroma subsampling                       : 4:2:0
Bit depth                                : 8 bits
Scan type                                : Progressive
Bits/(Pixel*Frame)                       : 0.098
Stream size                              : 1.51 GiB (85%)
Writing library                          : x264 core 148 r2762 90a61ec
Encoding settings                        : cabac=1 / ref=4 / deblock=1:-2:-2 / analyse=0x3:0x133 / me=umh / subme=7 / psy=1 / psy_rd=1.00:0.00 / mixed_ref=1 / me_range=16 / chroma_me=1 / trellis=2 / 8x8dct=1 / cqm=0 / deadzone=21,11 / fast_pskip=0 / chroma_qp_offset=-2 / threads=6 / lookahead_threads=1 / sliced_threads=0 / nr=0 / decimate=1 / interlaced=0 / bluray_compat=0 / constrained_intra=0 / bframes=5 / b_pyramid=2 / b_adapt=2 / b_bias=0 / direct=3 / weightb=1 / open_gop=0 / weightp=2 / keyint=250 / keyint_min=23 / scenecut=40 / intra_refresh=0 / rc_lookahead=40 / rc=2pass / mbtree=1 / bitrate=5087 / ratetol=1.0 / qcomp=0.60 / qpmin=0 / qpmax=69 / qpstep=4 / cplxblur=20.0 / qblur=0.5 / ip_ratio=1.40 / aq=1:1.00
Language                                 : English
Default                                  : Yes
Forced                                   : Yes

Audio #1
ID                                       : 2
Format                                   : AC-3
Format/Info                              : Audio Coding 3
Mode extension                           : CM (complete main)
Codec ID                                 : A_AC3
Duration                                 : 41mn 46s
Bit rate mode                            : Constant
Bit rate                                 : 384 Kbps
Channel(s)                               : 6 channels
Channel positions                        : Front: L C R, Side: L R, LFE
Sampling rate                            : 48.0 KHz
Bit depth                                : 16 bits
Compression mode                         : Lossy
Stream size                              : 115 MiB (6%)
Title                                    : ITA
Language                                 : Italian
Default                                  : Yes
Forced                                   : Yes

Audio #2
ID                                       : 3
Format                                   : AC-3
Format/Info                              : Audio Coding 3
Mode extension                           : CM (complete main)
Codec ID                                 : A_AC3
Duration                                 : 41mn 46s
Bit rate mode                            : Constant
Bit rate                                 : 384 Kbps
Channel(s)                               : 6 channels
Channel positions                        : Front: L C R, Side: L R, LFE
Sampling rate                            : 48.0 KHz
Bit depth                                : 16 bits
Compression mode                         : Lossy
Stream size                              : 115 MiB (6%)
Title                                    : ENG
Language                                 : English
Default                                  : No
Forced                                   : No

Text #1
ID                                       : 4
Format                                   : UTF-8
Codec ID                                 : S_TEXT/UTF8
Codec ID/Info                            : UTF-8 Plain Text
Title                                    : ITA - Forced
Language                                 : Italian
Default                                  : Yes
Forced                                   : Yes

Text #2
ID                                       : 5
Format                                   : UTF-8
Codec ID                                 : S_TEXT/UTF8
Codec ID/Info                            : UTF-8 Plain Text
Title                                    : ENG
Language                                 : English
Default                                  : No
Forced                                   : No
[/left]


[/spoiler]




REST IN SEED OR




[/center]
Info: Per scaricare devi usare un client come uTorrent o Transmission
AnnounceURL
udp://tracker.opentrackr.org:1337/announce
Hash f9f89ca1d82d558fec816c498e3a85ab9639ddf8
Peers seeds: 13 , leech: 14
Size 3.54 GB
Completato 211x
Aggiunto 17.07.17 - 13:07:23
Uploader   ppb1
Votazione (Voti: 0)


Condividi questo bittorrent:


html/blog:


bbcode/forum:




Aggiungi Commento