* Dettagli Torrent   globale  | Commenti (0) 


- Richard Missione Africa (2016).H264.Italian.English.Ac3.5.1.sub.ita.iCV-MIRCrew -


Download via torrent:
Categoria bittorrent BDRip
Descrizione
A Stork's Journey - Richard Missione Africa (2016).H264.Italian.English.Ac3.5.1.sub.ita.iCV-MIRCrew

[center]by www.icv-crew.org


NO FOUND ONLY ORIGINAL RELEASE



My release is always in double track audio italian and Original audio
for select it use VLC or dvd player home
not use wmp

Richard Missione Africa - A Stork's Journey (2016)







   DATA USCITA: 10 maggio 2017
   GENERE: Animazione, Avventura
   ANNO: 2016
   REGIA: Toby Genkel, Reza Memari
   PAESE: Lussemburgo, Belgio, Germania, Norvegia, USA
   DURATA: 129 Min
   DISTRIBUZIONE: M2 Pictures
   SCENEGGIATURA: Reza Memari
   MONTAGGIO: Reza Memari
   MUSICHE: Éric Neveux
   PRODUZIONE: Den Siste Skilling, Knudsen & Streuber Medienmanufaktur, Mélusine Productions



****************************************



Richard è un passerotto orfano che viene cresciuto amorevolmente da una famiglia di cicogne. Non gli è mai passato per la testa di non essere una cicogna anche lui, ma quando i suoi genitori adottivi e il fratellastro, cominciano a prepararsi per la lunga migrazione verso l’Africa, devono dirgli la verità: un passerotto non può affrontare un viaggio così lungo............



Even though everybody else thinks he's a sparrow - Richard himself holds tight to the conviction that he is in fact a stork.











[spoiler]
General
Unique ID                                : 193628347129122302194789507220031461496 (0x91AB76931569A9DEB29D5C40121CD87
Complete name                            : Richard Missione Africa 2016.H264.ita.eng.sub.ita.iCV-MIRCrew.mkv
Format                                   : Matroska
Format version                           : Version 2
File size                                : 1.29 GiB
Duration                                 : 1h 25mn
Overall bit rate                         : 2 166 Kbps
Movie name                               : icv-crew
Encoded date                             : UTC 2017-09-05 20:27:38
Writing application                      : Lavf54.63.100
Writing library                          : Lavf54.63.100
COPYRIGHT                                : robbyrs
DATE                                     : 2017

Video
ID                                       : 1
Format                                   : AVC
Format/Info                              : Advanced Video Codec
Format profile                           : Main@L4.1
Format settings, CABAC                   : Yes
Format settings, ReFrames                : 2 frames
Codec ID                                 : V_MPEG4/ISO/AVC
Duration                                 : 1h 25mn
Bit rate                                 : 1 227 Kbps
Nominal bit rate                         : 1 290 Kbps
Width                                    : 720 pixels
Height                                   : 384 pixels
Display aspect ratio                     : 1.854
Original display aspect ratio            : 1.853
Frame rate mode                          : Variable
Frame rate                               : 24.000 fps
Color space                              : YUV
Chroma subsampling                       : 4:2:0
Bit depth                                : 8 bits
Scan type                                : Progressive
Bits/(Pixel*Frame)                       : 0.185
Stream size                              : 746 MiB (57%)
Writing library                          : x264 core 130 r2273
Encoding settings                        : cabac=1 / ref=2 / deblock=1:0:0 / analyse=0x1:0x131 / me=hex / subme=7 / psy=1 / psy_rd=1.00:0.00 / mixed_ref=0 / me_range=16 / chroma_me=1 / trellis=1 / 8x8dct=0 / cqm=0 / deadzone=21,11 / fast_pskip=1 / chroma_qp_offset=-2 / threads=12 / lookahead_threads=2 / sliced_threads=0 / nr=0 / decimate=1 / interlaced=0 / bluray_compat=0 / constrained_intra=0 / bframes=3 / b_pyramid=0 / b_adapt=1 / b_bias=0 / direct=3 / weightb=1 / open_gop=0 / weightp=2 / keyint=240 / keyint_min=24 / scenecut=40 / intra_refresh=0 / rc_lookahead=40 / rc=abr / mbtree=1 / bitrate=1290 / ratetol=1.0 / qcomp=0.60 / qpmin=10 / qpmax=69 / qpstep=4 / vbv_maxrate=24000 / vbv_bufsize=24000 / nal_hrd=none / ip_ratio=1.40 / aq=1:1.00
Language                                 : Italian
Default                                  : Yes
Forced                                   : No
DURATION                                 : 01:25:00.250000000
NUMBER_OF_FRAMES                         : 122406
NUMBER_OF_BYTES                          : 4896476435
_STATISTICS_WRITING_APP                  : mkvmerge v8.7.0 ('All of the above') 64bit
_STATISTICS_WRITING_DATE_UTC             : 2017-09-02 08:35:42
_STATISTICS_TAGS                         : BPS DURATION NUMBER_OF_FRAMES NUMBER_OF_BYTES

Audio #1
ID                                       : 2
Format                                   : AC-3
Format/Info                              : Audio Coding 3
Mode extension                           : CM (complete main)
Codec ID                                 : A_AC3
Duration                                 : 1h 25mn
Bit rate mode                            : Constant
Bit rate                                 : 448 Kbps
Channel(s)                               : 6 channels
Channel positions                        : Front: L C R, Side: L R, LFE
Sampling rate                            : 48.0 KHz
Bit depth                                : 16 bits
Compression mode                         : Lossy
Delay relative to video                  : 1mn 5s
Stream size                              : 272 MiB (21%)
Language                                 : Italian
Default                                  : No
Forced                                   : No
DURATION                                 : 01:25:00.320000000
NUMBER_OF_FRAMES                         : 159385
NUMBER_OF_BYTES                          : 408025600
_STATISTICS_WRITING_APP                  : mkvmerge v8.7.0 ('All of the above') 64bit
_STATISTICS_WRITING_DATE_UTC             : 2017-09-02 08:35:42
_STATISTICS_TAGS                         : BPS DURATION NUMBER_OF_FRAMES NUMBER_OF_BYTES

Audio #2
ID                                       : 3
Format                                   : AC-3
Format/Info                              : Audio Coding 3
Mode extension                           : CM (complete main)
Codec ID                                 : A_AC3
Duration                                 : 1h 25mn
Bit rate mode                            : Constant
Bit rate                                 : 448 Kbps
Channel(s)                               : 6 channels
Channel positions                        : Front: L C R, Side: L R, LFE
Sampling rate                            : 48.0 KHz
Bit depth                                : 16 bits
Compression mode                         : Lossy
Delay relative to video                  : 1mn 5s
Stream size                              : 272 MiB (21%)
Language                                 : English
Default                                  : No
Forced                                   : No
DURATION                                 : 01:25:00.299000000
NUMBER_OF_FRAMES                         : 478153
NUMBER_OF_BYTES                          : 962043904
_STATISTICS_WRITING_APP                  : mkvmerge v8.7.0 ('All of the above') 64bit
_STATISTICS_WRITING_DATE_UTC             : 2017-09-02 08:35:42
_STATISTICS_TAGS                         : BPS DURATION NUMBER_OF_FRAMES NUMBER_OF_BYTES

Text
ID                                       : 4
Format                                   : ASS
Codec ID                                 : S_TEXT/ASS
Codec ID/Info                            : Advanced Sub Station Alpha
Compression mode                         : Lossless
Title                                    : Regular
Language                                 : Italian
Default                                  : No
Forced                                   : No
DURATION                                 : 01:17:42.749000000
NUMBER_OF_FRAMES                         : 897
NUMBER_OF_BYTES                          : 32856
_STATISTICS_WRITING_APP                  : mkvmerge v8.7.0 ('All of the above') 64bit
_STATISTICS_WRITING_DATE_UTC             : 2017-09-02 08:35:42
_STATISTICS_TAGS                         : BPS DURATION NUMBER_OF_FRAMES NUMBER_OF_BYTES

Menu
00:00:00.000                             : :00:00:00.000
00:00:55.167                             : :00:00:55.167
00:09:28.542                             : :00:09:28.542
00:18:35.375                             : :00:18:35.375
00:25:45.958                             : :00:25:45.958
00:31:23.625                             : :00:31:23.625
00:39:03.208                             : :00:39:03.208
00:46:08.625                             : :00:46:08.625
00:50:32.500                             : :00:50:32.500
00:56:57.917                             : :00:56:57.917
01:03:28.000                             : :01:03:28.000
01:09:58.875                             : :01:09:58.875
01:18:41.375                             : :01:18:41.375



[/spoiler]

[/center]

Info: Per scaricare devi usare un client come uTorrent o Transmission
AnnounceURL
udp://tracker.coppersurfer.tk:6969/announce
Hash ec8e81365556d512abcd82f5f96a85955a37e3b1
Peers seeds: 157 , leech: 27
Size 1.29 GB
Completato 2535x
Aggiunto 12.09.17 - 15:09:37
Uploader   robbyrs
Votazione (Voti: 1)


Condividi questo bittorrent:


html/blog:


bbcode/forum:




Aggiungi Commento