* Dettagli Torrent   globale  | Commenti (2) 


- Parto Col Folle 2010 iTALiAN MD BDrip XviD-NWS[L M ] -



Download via torrent:
                 
Categoria bittorrent Screener
Descrizione


Titolo originale: Due Date
Nazione: U.S.A.
Anno: 2010
Genere: Commedia
Durata: 100'
Regia: Todd Phillips
Sito ufficiale: duedatemovie.warnerbros.com
Sito italiano: www.partocolfolle.it
Social network: facebook

Cast: Robert Downey Jr., Zach Galifianakis, Juliette Lewis, Michelle Monaghan, Jamie Foxx, Danny McBride, Alan Arkin, Matt Walsh, James Martin Kelly, Rhoda Griffis, Mimi Kennedy, Emily Wagner, Sharon Morris, Reagan Michelle
Produzione: Warner Bros. Pictures, Legendary Pictures, Green Hat Films
Distribuzione: Warner Bros. Pictures Italia
Data di uscita: 28 Gennaio 2011 (cinema)



Code
   General
   Complete name : Parto.Col.Folle.2010.iTALiAN.MD.BDRip.XviD-NWS[L.M.].avi
   Format : AVI
   Format/Info : Audio Video Interleave
   File size : 702 MiB
   Duration : 1h 35mn
   Overall bit rate : 1 031 Kbps
   Writing application : VirtualDubMod 1.5.10.2 (build 2540/release)
   Writing library : VirtualDubMod build 2540/release
   Video
   ID : 0
   Format : MPEG-4 Visual
   Format profile : Advanced Simple@L5
   Format settings, BVOP : Yes
   Format settings, QPel : No
   Format settings, GMC : No warppoints
   Format settings, Matrix : Default (H.263)
   Codec ID : XVID
   Codec ID/Hint : XviD
   Duration : 1h 35mn
   Bit rate : 891 Kbps
   Width : 608 pixels
   Height : 256 pixels
   Display aspect ratio : 2.35:1
   Frame rate : 23.976 fps
   Color space : YUV
   Chroma subsampling : 4:2:0
   Bit depth : 8 bits
   Scan type : Progressive
   Compression mode : Lossy
   Bits/(Pixel*Frame) : 0.239
   Stream size : 607 MiB (86%)
   Writing library : XviD 1.2.1 (UTC 2008-12-04)
   Audio
   ID : 1
   Format : MPEG Audio
   Format version : Version 1
   Format profile : Layer 3
   Mode : Joint stereo
   Mode extension : MS Stereo
   Codec ID : 55
   Codec ID/Hint : MP3
   Duration : 1h 35mn
   Bit rate mode : Variable
   Bit rate : 127 Kbps
   Channel(s) : 2 channels
   Sampling rate : 44.1 KHz
   Compression mode : Lossy
   Stream size : 86.8 MiB (12%)
   Alignment : Aligned on interleaves
   Interleave, duration : 26 ms (0.63 video frame)
   Interleave, preload duration : 156 ms

Info: Per scaricare devi usare un client come uTorrent, o Azureus
AnnounceURL
http://denis.stalker.h3q.com:6969/announce
Hash 13960acf9ab9032d0c1c26027ae5b135fdda1989
Peers seeds: 0 , leech: 0
Size 702.31 MB
Completato 0x
Aggiunto 31.01.11 - 19:01:16
Uploader   goku666
Votazione (Voti: 2)


Condividi questo bittorrent:


html/blog:


bbcode/forum:


Tramite bookmarks:



Aggiungi Commento
Ultimi commenti
 infectoinfecto   
video ottimo
audio 7.5
ottimo file!
grazie!
06/02 16.17
 Aragorn65Aragorn65   
Grazie per tutto raga un commento a-v grazie
05/02 15.03
Tutti commenti (2)