* Dettagli Torrent   globale  | Commenti (0) 


- The Hunter 2010 iTALiAN MD DVDRip XviD-TNZ[LordM] -



Download via torrent:
                 
Categoria bittorrent Screener
Descrizione


Titolo originale: The Hunter
Nazione: Iran, Germania
Anno: 2010
Genere: Drammatico
Durata: 92'
Regia: Rafi Pitts
Sito ufficiale:

Cast: Rafi Pitts, Mitra Hajjar, Naser Madahi, Malek Jahan Khazai, Ali Nicksaulat, Ali Mazinani, Amir Ayoubi, Ossta Shah Tir, Hossein Nickbakht, Gholamreza Rajabzadeh.
Produzione: Aftab Negaran Productions, Filmförderungsanstalt, ZDF/Arte
Distribuzione: Fandango Distribuzione
Data di uscita: 17 Giugno 2011 (cinema)



Code
       General
       Complete name                    : The.Hunter.2010.iTALiAN.MD.DVDRip.XviD-TNZ[LordM].avi
       Format                           : AVI
       Format/Info                      : Audio Video Interleave
       File size                        : 699 MiB
       Duration                         : 1h 28mn
       Overall bit rate                 : 1 108 Kbps
       Writing application              : VirtualDubMod 1.5.10.2 (build 2540/release)
       Writing library                  : VirtualDubMod build 2540/release

       Video
       ID                               : 0
       Format                           : MPEG-4 Visual
       Format profile                   : Advanced Simple@L5
       Format settings, BVOP            : 2
       Format settings, QPel            : No
       Format settings, GMC             : No warppoints
       Format settings, Matrix          : Default (H.263)
       Codec ID                         : XVID
       Codec ID/Hint                    : XviD
       Duration                         : 1h 28mn
       Bit rate                         : 976 Kbps
       Width                            : 688 pixels
       Height                           : 368 pixels
       Display aspect ratio             : 1.870
       Frame rate                       : 25.000 fps
       Color space                      : YUV
       Chroma subsampling               : 4:2:0
       Bit depth                        : 8 bits
       Scan type                        : Progressive
       Compression mode                 : Lossy
       Bits/(Pixel*Frame)               : 0.154
       Stream size                      : 616 MiB (88%)
       Writing library                  : XviD 1.2.1 (UTC 2008-12-04)

       Audio
       ID                               : 1
       Format                           : MPEG Audio
       Format version                   : Version 1
       Format profile                   : Layer 3
       Mode                             : Joint stereo
       Mode extension                   : MS Stereo
       Codec ID                         : 55
       Codec ID/Hint                    : MP3
       Duration                         : 1h 28mn
       Bit rate mode                    : Variable
       Bit rate                         : 120 Kbps
       Nominal bit rate                 : 128 Kbps
       Channel(s)                       : 2 channels
       Sampling rate                    : 44.1 KHz
       Compression mode                 : Lossy
       Stream size                      : 75.5 MiB (11%)
       Alignment                        : Aligned on interleaves
       Interleave, duration             : 26 ms (0.65 video frame)
       Interleave, preload duration     : 160 ms
       Writing library                  : LAME3.90.
       Encoding settings                : -m j -V 4 -q 2 -lowpass 17.6 --abr 128

Info: Per scaricare devi usare un client come uTorrent, o Azureus
AnnounceURL
http://tracker.openbittorrent.com/announce
Hash 27fbae153dffb3525263b31605f106abac15f1ce
Peers seeds: 0 , leech: 0
Size 699.30 MB
Completato 0x
Aggiunto 22.06.11 - 15:06:26
Uploader   goku666
Votazione (Voti: 0)


Condividi questo bittorrent:


html/blog:


bbcode/forum:


Tramite bookmarks:



Aggiungi Commento