* Dettagli Torrent   globale  | Commenti (0) 


- The Vampire Diaries S04E21 HDTV XviD-Eng Sub Ita-[iDN CreW] -



Download via torrent:
                 
Categoria bittorrent SerieTv
Descrizione


The Vampire Diaries ľ Stagione 4
AVI Eng Sub Ita





Titolo: The Vampire Diaries
Anno: 2012
NazionalitÓ: USA
Genere: horror, thriller, fantasy
Lingua: Inglese
Stagione: 4
Episodi: 23
Durata Episodio: 45 min ca (episodio)
Ideatore: Kevin Williamson
Distribuzione USA: The CW (dal 11 Ottobre 2012)
Distribuzione ITALIA: Mya (dal 08 Novembre 2012)








Nina Dobrev: Elena Gilbert/Katherine Pierce



Paul Wesley: Stefan Salvatore



Ian Somerhalder: Damon Salvatore



Steven R. McQueen: Jeremy Gilbert



Katerina Graham: Bonnie Bennett



Candice Accola: Caroline Forbes



Zach Roerig: Matt Donovan



Michael Trevino: Tyler Lockwood



Joseph Morgan: Klaus



Claire Holt: Rebekah



Grace Phipps: April

Daniel Gillies: Elijah





Finale della terza stagione, che lasciava intendere molto sulle sorti di Elena. In questa stagione ripartiamo proprio da lý, dove Elena si troverÓ di fronte ad una nuova scelta dolorosa. Appariranno nuovi personaggi, che siano buoni o cattivi questo ancora non lo so, ma di sicuro troveranno il modo per creare problemi a Stephen e Damon, sempre in acerrima lotta con l'amore per Elena. In una Mistic Falls dove molti segreti sono stati svelati, nuovi amori stanno per nascere, continue battaglia di sopravvivenza, inizia questo nuovo capitolo di una serie diventata ormai un cult, sia in America che in Italia. Buona visione!!



1  Growing Pains
2  Memorial
3  The Rager
4  The Five
5  The Killer
6  We All Go a Little Mad Sometimes
7  My Brother's Keeper
8  We'll Always Have Bourbon Street
9  O Come, All Ye Faithful
10  After School Special
11  Catch Me If You Can
12  A View to a Kill
13  Into the wild
14  Down the Rabbit Hole
15  Stand by Me
16  Bring It On
17  Because the Night
18  American Gothic
19  Pictures of You
20  The Originals
21  She's Come Undone

.....




La quarta stagione sarÓ incentrata su Elena e sulla sua visione del mondo attraverso gli occhi da vampira, ci concentreremo molto sul suo personaggio, sui molti aspetti della sua personalitÓ. Inoltre questo Ŕ l'anno in cui molti personaggi si diplomeranno e vedremo l'azione spostarsi in scenografie diverse. "E' stato un anno di 'conclusione', mentre il prossimo sarÓ tutto all'insegna di un nuovo inizio".





Sottotitoli impressi a video (HardSub)

Programma usato: AVIRecomp

General
Complete name                    : The.Vampire.Diaries.S04E01.HDTV.XviD-Eng+Sub Ita-[iDN_CreW].avi
Format                           : AVI
Format/Info                      : Audio Video Interleave
File size                        : 340 MiB
Duration                         : 42mn 2s
Overall bit rate                 : 1 131 Kbps
Writing application              : VirtualDubMod 1.5.10.2 (build 2542/release)
Writing library                  : VirtualDubMod build 2542/release

Video
Format                           : MPEG-4 Visual
Format profile                   : Streaming Video@L1
Format settings, BVOP            : Yes
Format settings, QPel            : No
Format settings, GMC             : No warppoints
Format settings, Matrix          : Default
Muxing mode                      : Packed bitstream
Codec ID                         : XVID
Codec ID/Hint                    : XviD
Duration                         : 42mn 2s
Bit rate                         : 990 Kbps
Width                            : 640 pixels
Height                           : 360 pixels
Display aspect ratio             : 16/9
Frame rate                       : 23.976 fps
Resolution                       : 24 bits
Colorimetry                      : 4:2:0
Scan type                        : Progressive
Bits/(Pixel*Frame)               : 0.179
Stream size                      : 298 MiB (88%)
Writing library                  : XviD 64

Audio
Format                           : MPEG Audio
Format version                   : Version 1
Format profile                   : Layer 3
Codec ID                         : 55
Codec ID/Hint                    : MP3
Duration                         : 42mn 2s
Bit rate mode                    : Variable
Bit rate                         : 128 Kbps
Channel(s)                       : 2 channels
Sampling rate                    : 48.0 KHz
Resolution                       : 16 bits
Stream size                      : 38.5 MiB (11%)
Alignment                        : Aligned on interleaves
Interleave, duration             : 24 ms (0.58 video frame)
Interleave, preload duration     : 490 ms
Writing library                  : LAME3.98.4














Ringrazio Badtv.it, movieplayer e wiki per informazioni e immagini, la crew AFG per la realizzazione del video, il gruppo ITASA per i sub
Info: Per scaricare devi usare un client come uTorrent, o Azureus
AnnounceURL
udp://tracker.istole.it/
Hash a455344f0e72478e895fc74330012e02e7762982
Peers seeds: 0 , leech: 0
Size 357.10 MB
Completato 0x
Aggiunto 07.05.13 - 20:05:52
Uploader   ww
Votazione (Voti: 1)


Condividi questo bittorrent:


html/blog:


bbcode/forum:


Tramite bookmarks:



Aggiungi Commento