* Dettagli Torrent   globale  | Commenti (0) 


- Resident Evil Damnation - Biohazard: Damnation (2012) [XviD - Italian English Ac3 - Sub Ita Eng] MIR -



Download via torrent:
                 
Categoria bittorrent DVD
Descrizione
Resident Evil Damnation - Biohazard: Damnation (2012) [XviD - Italian English Ac3 - Sub Ita Eng] MIRCrew









Scheda Film

Titolo originale Biohazard: Damnation
Paese di produzione Giappone
Anno 2012
Durata 96 minuti
Genere animazione, horror fantascientifico, azione
Regia Makoto Kamiya
Soggetto Hiroyuki Kobayashi



Doppiatori originali

   Matthew Mercer: Leon S. Kennedy
   Dave Wittemberg: Buddy - Alexander 'Sasha' Kozachenko
   Wendee Lee: Svetlana Belikova
   Val Tasso: JD
   Robin Sachs: Ataman/Ivan Judanovich
   Courtenay Taylor: Ada Wong
   Salli Saffioti: Ingrid Hunnigan

Doppiatori italiani

   Alessandro Rigotti: Leon S. Kennedy
   Patrizia Scianca: Ada Wong






2011. Leon Scott Kennedy viene mandato nella Repubblica Slava dell'Est, una piccola nazione sorta dopo il crollo dell'URSS, per appurare l'utilizzo di BOW nel corso della guerra civile che

da anni vede contrapposto il governo nazionale di stampo oligarchico, guidato dalla presidente Svetlana Borikova, e un agguerrito gruppo ribelle.

I ribelli sono infatti riusciti a mettere le mani su un nuovo tipo di tecnologia bio-organica, che sfrutta il potere delle Plagas per permettere ad un essere umano, contaminato da una

Plagas di controllo, di controllare diverse BOW. Per creare i Lickers con , i ribelli hanno eseguito un esperimento molto simile a quello condotto in Africa dalla Tricell, ma su larga scala

e non su poche cavie: alle Plagas subordinate stato fatto assimilare il virus T, in modo che gli infetti si trasformino in zombie leggermente pi intelligenti ed in grado di trasmettere

l'infezione sputando altre Plagas dalla bocca

Storyline

United States Special Agent Leon S. Kennedy sneaks into a small Eastern European country to verify rumors that Bio Organic Weapons (B.O.W.s) are being used in war. Right after his

infiltration, the U.S. government orders him to leave immediately. Determined to uncover the truth, Leon ignores the order and enters the battlefield to end the chain of tragedies caused by

the B.O.W.s.



 

 











General
Complete name                    : F:\Resident Evil Damnation (2012).ita.eng.sub.ita.eng.MIRCrew\Resident Evil Damnation (2012).ita.eng.sub.ita.eng.MIRCrew.avi
Format                           : AVI
Format/Info                      : Audio Video Interleave
File size                        : 1.55 GiB
Duration                         : 1h 40mn
Overall bit rate                 : 2 216 Kbps
Writing application              : VirtualDubMod 1.5.10.2 (build 2540/release)
Writing library                  : VirtualDubMod build 2540/release

Video
ID                               : 0
Format                           : MPEG-4 Visual
Format profile                   : [email protected]
Format settings, BVOP            : Yes
Format settings, QPel            : No
Format settings, GMC             : No warppoints
Format settings, Matrix          : Default (H.263)
Codec ID                         : XVID
Codec ID/Hint                    : XviD
Duration                         : 1h 40mn
Bit rate                         : 1 498 Kbps
Width                            : 720 pixels
Height                           : 400 pixels
Display aspect ratio             : 16:9
Frame rate                       : 23.976 fps
Color space                      : YUV
Chroma subsampling               : 4:2:0
Bit depth                        : 8 bits
Scan type                        : Progressive
Bits/(Pixel*Frame)               : 0.217
Stream size                      : 1.05 GiB (68%)

Audio #1
ID                               : 1
Format                           : AC-3
Format/Info                      : Audio Coding 3
Mode extension                   : CM (complete main)
Codec ID                         : 2000
Duration                         : 1h 40mn
Bit rate mode                    : Constant
Bit rate                         : 448 Kbps
Channel(s)                       : 6 channels
Channel positions                : Front: L C R, Side: L R, LFE
Sampling rate                    : 48.0 KHz
Bit depth                        : 16 bits
Stream size                      : 321 MiB (20%)
Alignment                        : Split accross interleaves
Interleave, duration             : 42 ms (1.00 video frame)
Interleave, preload duration     : 500 ms

Audio #2
ID                               : 2
Format                           : AC-3
Format/Info                      : Audio Coding 3
Mode extension                   : CM (complete main)
Codec ID                         : 2000
Duration                         : 1h 40mn
Bit rate mode                    : Constant
Bit rate                         : 256 Kbps
Channel(s)                       : 2 channels
Channel positions                : Front: L R
Sampling rate                    : 48.0 KHz
Bit depth                        : 16 bits
Stream size                      : 183 MiB (12%)
Alignment                        : Split accross interleaves
Interleave, duration             : 42 ms (1.00 video frame)
Interleave, preload duration     : 500 ms

Info: Per scaricare devi usare un client come uTorrent, o Azureus
AnnounceURL
http://tracker.tntvillage.scambioetico.org:2710/announce
Hash f2ca12e04c82098e09d030d87d341a163c22c701
Peers seeds: 37 , leech: 25
Size 1.55 GB
Completato 633x
Aggiunto 14.10.13 - 09:10:35
Uploader   robbyrs
Votazione (Voti: 0)


Condividi questo bittorrent:


html/blog:


bbcode/forum:


Tramite bookmarks:



Aggiungi Commento