* Dettagli Torrent   globale  | Commenti (0) 


- Hansel e Gretel Cacciatori Di Streghe - Hansel and Gretel Witch Hunters(2013) [XviD - Italian Englis -



Download via torrent:
                 
Categoria bittorrent DVDrip
Descrizione
Hansel e Gretel Cacciatori Di Streghe - Hansel and Gretel Witch Hunters(2013) [XviD - Italian English Ac3 5.1 - Sub Ita Eng] MIRCrew




NO FOUND ONLY ORIGINAL RELEASE

Hansel e Gretel Cacciatori Di Streghe - Hansel and Gretel Witch Hunters(2013)



 



Titolo originale Hansel and Gretel: Witch Hunters
Lingua originale inglese
Paese di produzione Germania, USA
Anno 2013
Durata 88 min.
(versione integrale: 97 min.)
Colore colore
Audio Dolby Digital, Datasat
Genere azione, fantastico, orrore
Regia Tommy Wirkola
Soggetto Jacob e Wilhelm Grimm
Sceneggiatura Tommy Wirkola
Produttore Will Ferrell, Beau Flynn, Chris Henchy, Adam McKay
Produttore esecutivo Denis L. Stewart
Casa di produzione Metro-Goldwyn-Mayer, Paramount Pictures, Gary Sanchez Productions, Siebzehnte Babelsberg
Distribuzione (Italia) Universal Pictures
Fotografia Michael Bonvillain
Montaggio Jim Page
Effetti speciali Plowman Craven & Associates, Framestore, Hammerhead Productions, New Deal Studios, Proof, Shade VFX, Spectral Motion, Stereo D, The Base Studio
Musiche Atli Írvarsson
Scenografia Stephen Scott
Costumi Marlene Stewart
Trucco Marcela Barreto






   Jeremy Renner: Hansel
   Gemma Arterton: Gretel
   Monique Ganderton: strega dei dolci
   Famke Janssen: Muriel
   Pihla Viitala: Mina
   Peter Stormare: Berringer
   Thomas Mann: Ben
   ZoŰ Bell: strega alta
   Ingrid Bols° Berdal: strega cornuta
   Joanna Kulig: strega dai capelli rossi
   Derek Mears: Edward
   Judy Norton: Allyson

Doppiatori italiani

   Alessandro Quarta : Hansel
   Francesca Fiorentini: Gretel
   Laura Boccanera: Muriel
   Monica Ward: Mina
   Saverio Indrio: Berringer
   Alessandro Ward: Ben



Da bambini, Hansel e Gretel vengono abbandonati nel bosco dai genitori; mentre vagano nel bosco, incontrano una casa completamente fatta di Marzapane, dove una terribile strega li rapisce e

tiene prigionieri con l'intenzione di mangiarseli. Poco prima che riesca a mangiarsi Hansel, per˛, i due riescono a combatterla e a ucciderla bruciandola nel forno, scoprendo, durante la

lotta, di essere misteriosamente immuni ai poteri delle streghe. Dopo quella volta, i due decidono di non tornare pi¨ dai loro genitori, convinti di essere stati abbandonati per egosimo, e

di diventare cacciatori di streghe................




The siblings Hansel and Gretel are left alone in the woods by their father and captured by a dark witch in a candy house. However they kill the witch and escape from the spot. Years later,

the orphans have become famous witch hunters. When eleven children go missing in a small village, the Mayor summons Hansel and Gretel to rescue them, and they save the red haired Mina from

the local sheriff that wants to burn her accusing Mina of witchcraft. Soon they discover that the Blood Moon will approach in three days and the powerful dark witch Muriel is the

responsible for the abduction of children.........














[spoiler]
General
Complete name                            : Hansel e Gretel Cacciatori Di Streghe - Hansel and Gretel Witch Hunters(2013).ita.eng.sub.ita.eng.MIRCrew\Hansel e Gretel Cacciatori Di Streghe

(2013).ita.eng.sub.ita.eng.MIRCrew.avi
Format                                   : AVI
Format/Info                              : Audio Video Interleave
File size                                : 1.65 GiB
Duration                                 : 1h 37mn
Overall bit rate                         : 2 410 Kbps
Writing application                      : VirtualDubMod 1.5.10.2 (build 2540/release)
Writing library                          : VirtualDubMod build 2540/release

Video
ID                                       : 0
Format                                   : MPEG-4 Visual
Format profile                           : Simple@L3
Format settings, BVOP                    : Yes
Format settings, QPel                    : No
Format settings, GMC                     : No warppoints
Format settings, Matrix                  : Default (H.263)
Codec ID                                 : XVID
Codec ID/Hint                            : XviD
Duration                                 : 1h 37mn
Bit rate                                 : 1 500 Kbps
Width                                    : 720 pixels
Height                                   : 304 pixels
Display aspect ratio                     : 2.35:1
Frame rate                               : 23.976 fps
Color space                              : YUV
Chroma subsampling                       : 4:2:0
Bit depth                                : 8 bits
Scan type                                : Progressive
Compression mode                         : Lossy
Bits/(Pixel*Frame)                       : 0.286
Stream size                              : 1.03 GiB (62%)

Audio #1
ID                                       : 1
Format                                   : AC-3
Format/Info                              : Audio Coding 3
Mode extension                           : CM (complete main)
Codec ID                                 : 2000
Duration                                 : 1h 37mn
Bit rate mode                            : Constant
Bit rate                                 : 448 Kbps
Channel(s)                               : 6 channels
Channel positions                        : Front: L C R, Side: L R, LFE
Sampling rate                            : 48.0 KHz
Bit depth                                : 16 bits
Compression mode                         : Lossy
Stream size                              : 314 MiB (19%)
Alignment                                : Split accross interleaves
Interleave, duration                     : 42 ms (1.00 video frame)
Interleave, preload duration             : 500 ms

Audio #2
ID                                       : 2
Format                                   : AC-3
Format/Info                              : Audio Coding 3
Mode extension                           : CM (complete main)
Codec ID                                 : 2000
Duration                                 : 1h 37mn
Bit rate mode                            : Constant
Bit rate                                 : 448 Kbps
Channel(s)                               : 6 channels
Channel positions                        : Front: L C R, Side: L R, LFE
Sampling rate                            : 48.0 KHz
Bit depth                                : 16 bits
Compression mode                         : Lossy
Stream size                              : 314 MiB (19%)
Alignment                                : Split accross interleaves
Interleave, duration                     : 42 ms (1.00 video frame)
Interleave, preload duration             : 500 ms





[/spoiler]


Info: Per scaricare devi usare un client come uTorrent, o Azureus
AnnounceURL
http://tracker.coppersurfer.tk:6969/announce
Hash 7e136490b69389fe1abee11d08976462db72dcf5
Peers seeds: 371 , leech: 594
Size 1.66 GB
Completato 1549x
Aggiunto 20.01.14 - 08:01:09
Uploader   robbyrs
Votazione (Voti: 0)


Condividi questo bittorrent:


html/blog:


bbcode/forum:


Tramite bookmarks:



Aggiungi Commento