* Dettagli Torrent   globale  | Commenti (0) 


- Riddick - directors cut (2013) [XviD - Italian English Spanish Ac3 5.1 - Sub Ita Eng Spa] MIRCrew -



Download via torrent:
                 
Categoria bittorrent DVDrip
Descrizione
Riddick - director's cut (2013) [XviD - Italian English Spanish Ac3 5.1 - Sub Ita Eng Spa] MIRCrew




NO FOUND ONLY ORIGINAL RELEASE


Riddick (2013)



 




Titolo originale Riddick
Lingua originale Inglese
Paese di produzione USA
Anno 2013
Durata 119 min
126 min (director's cut)
Genere azione, fantascienza, thriller
Regia David Twohy
Soggetto Jim Wheat, Ken Wheat
Sceneggiatura David Twohy
Produttore Vin Diesel, Ted Field, Samantha Vincent
Casa di produzione Media Rights Capital, Radar Pictures, One Race Films
Distribuzione (Italia) Universal Pictures
Montaggio Tracy Adams
Musiche Graeme Revell






   Vin Diesel: Richard B. Riddick
   Katee Sackhoff: Dahl
   Jordi Moll: Santana
   Matt Nable: Boss Johns
   Bokeem Woodbine: Moss
   Raoul Trujillo: Lockspur
   Dave Batista: Diaz
   Conrad Pla: Vargas
   Neil Napier: Rubio
   Nolan Gerard Funk: Luna
   Andreas Apergis: Krone
   Karl Urban: Lord Vaako

Doppiatori italiani

   Massimo Corvo: Richard B. Riddick
   Francesca Fiorentini: Dahl
   Christian Iansante: Santana
   Francesco Prando: Boss Johns
   Alessandro Messina: Diaz
   Franco Mannella: Vargas
   Flavio Aquilone: Luna




Tradito dai Necromonger e lasciato quasi morto su un pianeta desolato, Riddick deve combattere per la propria sopravvivenza contro predatori alieni. Inizialmente molto debole a cause delle

gravi ferite lasciategli dai Necromonger, Riddick, ripensando ai suoi giorni da Lord Marshal, si rende conto di essersi troppo civilizzato e decide di tornare il guerriero selvaggio di un

tempo, diventando ancora pi pericoloso e potente. Presto, dei mercenari giungono sul pianeta per tentare nuovamente di incarcerare Riddick, ma finiscono vittima di un piano di quest'ultimo

per fuggire e tornare sul suo pianeta natale Furya......




Betrayed by his own kind and left for dead on a desolate planet, Riddick fights for survival against alien predators and becomes more powerful and dangerous than ever before. Soon bounty

hunters from throughout the galaxy descend on Riddick only to find themselves pawns in his greater scheme for revenge. With his enemies right where he wants them, Riddick unleashes a

vicious attack of vengeance before returning to his home planet of Furya to save it from destruction..............















[spoiler]
General
Complete name                            : Riddick (2013).ita.eng.spa.Sub.ita.eng.spa.MIRCrew\Riddick.(2013).ita.eng.spa.Sub.ita.eng.spa.MIRCrew.avi
Format                                   : AVI
Format/Info                              : Audio Video Interleave
Format profile                           : OpenDML
File size                                : 2.38 GiB
Duration                                 : 1h 58mn
Overall bit rate                         : 2 867 Kbps
Writing application                      : VirtualDubMod 1.5.10.2 (build 2540/release)
Writing library                          : VirtualDubMod build 2540/release

Video
ID                                       : 0
Format                                   : MPEG-4 Visual
Format profile                           : Simple@L3
Format settings, BVOP                    : Yes
Format settings, QPel                    : No
Format settings, GMC                     : No warppoints
Format settings, Matrix                  : Default (H.263)
Codec ID                                 : XVID
Codec ID/Hint                            : XviD
Duration                                 : 1h 58mn
Bit rate                                 : 1 500 Kbps
Width                                    : 720 pixels
Height                                   : 304 pixels
Display aspect ratio                     : 2.35:1
Frame rate                               : 23.976 fps
Color space                              : YUV
Chroma subsampling                       : 4:2:0
Bit depth                                : 8 bits
Scan type                                : Progressive
Compression mode                         : Lossy
Bits/(Pixel*Frame)                       : 0.286
Stream size                              : 1.24 GiB (52%)

Audio #1
ID                                       : 1
Format                                   : AC-3
Format/Info                              : Audio Coding 3
Mode extension                           : CM (complete main)
Codec ID                                 : 2000
Duration                                 : 1h 58mn
Bit rate mode                            : Constant
Bit rate                                 : 448 Kbps
Channel(s)                               : 6 channels
Channel positions                        : Front: L C R, Side: L R, LFE
Sampling rate                            : 48.0 KHz
Bit depth                                : 16 bits
Compression mode                         : Lossy
Delay relative to video                  : 950ms
Stream size                              : 380 MiB (16%)
Alignment                                : Split accross interleaves
Interleave, duration                     : 42 ms (1.00 video frame)
Interleave, preload duration             : 500 ms

Audio #2
ID                                       : 2
Format                                   : AC-3
Format/Info                              : Audio Coding 3
Mode extension                           : CM (complete main)
Codec ID                                 : 2000
Duration                                 : 1h 58mn
Bit rate mode                            : Constant
Bit rate                                 : 448 Kbps
Channel(s)                               : 6 channels
Channel positions                        : Front: L C R, Side: L R, LFE
Sampling rate                            : 48.0 KHz
Bit depth                                : 16 bits
Compression mode                         : Lossy
Stream size                              : 380 MiB (16%)
Alignment                                : Split accross interleaves
Interleave, duration                     : 42 ms (1.00 video frame)
Interleave, preload duration             : 500 ms

Audio #3
ID                                       : 3
Format                                   : AC-3
Format/Info                              : Audio Coding 3
Mode extension                           : CM (complete main)
Codec ID                                 : 2000
Duration                                 : 1h 58mn
Bit rate mode                            : Constant
Bit rate                                 : 448 Kbps
Channel(s)                               : 6 channels
Channel positions                        : Front: L C R, Side: L R, LFE
Sampling rate                            : 48.0 KHz
Bit depth                                : 16 bits
Compression mode                         : Lossy
Stream size                              : 380 MiB (16%)
Alignment                                : Split accross interleaves
Interleave, duration                     : 42 ms (1.00 video frame)
Interleave, preload duration             : 500 ms




[/spoiler]


Info: Per scaricare devi usare un client come uTorrent, o Azureus
AnnounceURL
http://tracker.coppersurfer.tk:6969/announce
Hash dcdb41307c4a46a337ae8107c2d858e58a17b2d9
Peers seeds: 93 , leech: 109
Size 2.38 GB
Completato 536x
Aggiunto 25.01.14 - 08:01:25
Uploader   robbyrs
Votazione (Voti: 0)


Condividi questo bittorrent:


html/blog:


bbcode/forum:


Tramite bookmarks:



Aggiungi Commento