* Dettagli Torrent   globale  | Commenti (0) 


- Star Trek I The Motion Picture ITA ENG AC3 BDRip 1080p X265 ZMachine -



Download via torrent:
                 
Categoria bittorrent DVDrip
Descrizione
PER RIPRODURRE CORRETTAMENTE IL FILE USARE L'ULTIMA VERSIONE VLC o MPC-BE







.: Scheda del Film :.

Titolo originale:
NazionalitÓ: USA
Anno: 1979                            
Genere: Fantascienza |  Avventura
Regia: Robert Wise
Durata: 132 m

Cast:
William Shatner, Grace Lee Whitney, Persis Khambatta, Walter Koenig, Leonard Nimoy, Majel Barrett, Stephen Collins, James Doohan, George Take, DeForest Kelley, Nichelle Nichols

.: Trama :.

Siamo nel XXIII secolo. Un "intruso", distrutte agevolmente le astronavi di difesa di Klington, si sta dirigendo verso la Terra. Il Capitano James T. Kirk, nonostante il lungo periodo di permanenza alla base, assume la direzione del veicolo spaziale "Uss Enterprise", con disappunto di Willard Decker che viene costretto a fare da secondo. Il veicolo, tra l'altro, non Ŕ del tutto a punto. Comunque delle 431 persone dell'equipaggio, il motorista Scott, il timoniere Sulu, l'addetto alle comunicazioni Uhura, l'ufficiale di controllo Chekov, la dottoressa Christine Chapel, l'addetto al carico Janice Rand, la calva pilota Ilia fanno ciascuno il proprio dovere.

.: ScreenShot :.








.: Mediainfo :.

General
Unique ID                                : 205440782206776567833774985559264737768 (0x9A8E7496BC36970C9259A8F88ECC39E
Complete name                            : I:\Sources\Star Trek X265\Star.Trek.I.The.Motion.Picture.ITA.ENG.AC3BDRip.1080p.X265_ZMachine.mkv
Format                                   : Matroska
Format version                           : Version 4 / Version 2
File size                                : 2.91 GiB
Duration                                 : 2h 12mn
Overall bit rate                         : 3 152 Kbps
Movie name                               : Star Trek: I - The Motion Picture <ZMachine>
Encoded date                             : UTC 2014-05-21 18:24:45
Writing application                      : mkvmerge v6.9.1 ('Blue Panther') 64bit built on Apr 18 2014 18:23:38
Writing library                          : libebml v1.3.0 + libmatroska v1.4.1

Video
ID                                       : 1
Format                                   : HEVC
Format/Info                              : High Efficiency Video Coding
Codec ID                                 : V_MPEGH/ISO/HEVC
Duration                                 : 2h 12mn
Bit rate                                 : 2 418 Kbps
Width                                    : 1 920 pixels
Height                                   : 816 pixels
Display aspect ratio                     : 2.35:1
Frame rate mode                          : Constant
Frame rate                               : 23.976 fps
Bits/(Pixel*Frame)                       : 0.064
Stream size                              : 2.23 GiB (77%)
Title                                    : Video H.265 (Encoded by ZMachine)
Default                                  : Yes
Forced                                   : Yes

Audio #1
ID                                       : 2
Format                                   : AC-3
Format/Info                              : Audio Coding 3
Format profile                           : Dolby Digital
Mode extension                           : CM (complete main)
Format settings, Endianness              : Big
Codec ID                                 : A_AC3
Duration                                 : 2h 12mn
Bit rate mode                            : Constant
Bit rate                                 : 224 Kbps
Channel(s)                               : 2 channels
Channel positions                        : Front: L R
Sampling rate                            : 48.0 KHz
Bit depth                                : 16 bits
Compression mode                         : Lossy
Stream size                              : 211 MiB (7%)
Title                                    : Audio AC3
Language                                 : Italian
Default                                  : Yes
Forced                                   : No

Audio #2
ID                                       : 3
Format                                   : AC-3
Format/Info                              : Audio Coding 3
Mode extension                           : CM (complete main)
Format settings, Endianness              : Big
Codec ID                                 : A_AC3
Duration                                 : 2h 12mn
Bit rate mode                            : Constant
Bit rate                                 : 448 Kbps
Channel(s)                               : 6 channels
Channel positions                        : Front: L C R, Side: L R, LFE
Sampling rate                            : 48.0 KHz
Bit depth                                : 16 bits
Compression mode                         : Lossy
Stream size                              : 423 MiB (14%)
Title                                    : Audio AC3
Language                                 : English
Default                                  : No
Forced                                   : No

Text #1
ID                                       : 4
Format                                   : ASS
Codec ID                                 : S_TEXT/ASS
Codec ID/Info                            : Advanced Sub Station Alpha
Compression mode                         : Lossless
Title                                    : Sub Forced
Language                                 : Italian
Default                                  : Yes
Forced                                   : Yes

Text #2
ID                                       : 5
Format                                   : ASS
Codec ID                                 : S_TEXT/ASS
Codec ID/Info                            : Advanced Sub Station Alpha
Compression mode                         : Lossless
Title                                    : Sub Forced
Language                                 : English
Default                                  : No
Forced                                   : Yes

Text #3
ID                                       : 6
Format                                   : ASS
Codec ID                                 : S_TEXT/ASS
Codec ID/Info                            : Advanced Sub Station Alpha
Compression mode                         : Lossless
Title                                    : Sub
Language                                 : Italian
Default                                  : No
Forced                                   : No

Text #4
ID                                       : 7
Format                                   : ASS
Codec ID                                 : S_TEXT/ASS
Codec ID/Info                            : Advanced Sub Station Alpha
Compression mode                         : Lossless
Title                                    : Sub
Language                                 : English
Default                                  : No
Forced                                   : No

Menu
00:00:00.000                             : Overature
00:01:41.518                             : Main Title
00:08:50.905                             : Klingon Battle
00:11:49.291                             : Vulcan
00:20:46.203                             : Starfleet Headquarters
00:25:12.969                             : The New Enterprise
00:28:01.179                             : Welcome Aboard
00:31:31.222                             : Transporter Malfunction
00:38:02.822                             : Mission Briefing
00:44:36.382                             : The Navigator Ilia
00:48:07.759                             : Friends Reunited
00:55:28.283                             : Ready for Departure
01:01:15.380                             : The Wormhole
01:12:20.627                             : Decker Speaks Freely
01:17:28.852                             : Spock's Arrival
01:21:55.201                             : Warp Speed
01:27:21.319                             : Red Alert
01:38:14.221                             : The Intruder Communicates
01:46:18.205                             : Entering the Cloud
01:51:56.918                             : The Alien Vessel
02:08:36.250                             : Plasma Probe

.: Note :.



Info: Per scaricare devi usare un client come uTorrent, o Azureus
AnnounceURL
http://tracker.tntvillage.scambioetico.org:2710/announce
Hash 75bba514ea3d7b3037887bedb344c8e415d718ac
Peers seeds: 100 , leech: 93
Size 2.91 GB
Completato 898x
Aggiunto 29.05.14 - 14:05:12
Uploader   ZMachine
Votazione (Voti: 0)


Condividi questo bittorrent:


html/blog:


bbcode/forum:


Tramite bookmarks:



Aggiungi Commento