* Dettagli Torrent   globale  | Commenti (0) 


- Star Trek III Alla Ricerca di Spock ITA ENG AC3 BDRip 1080p X265 ZMachine -



Download via torrent:
                 
Categoria bittorrent DVDrip
Descrizione
PER RIPRODURRE CORRETTAMENTE IL FILE USARE L'ULTIMA VERSIONE VLC o MPC-BE







Titolo originale: Star Trek III - The Search for Spock
NazionalitÓ: USA
Anno: 1984                        
Genere: Fantascienza
Regia: Leonard Nimoy
Durata: 106 m

Cast:
William Shatner, Leonard Nimoy, DeForest Kelley, James Doohan, George Takei, Walter Koenig, Nichelle Nichols, Merritt Butrick, Phil Morris, Scott McGinnis, Robin Curtis, Robert Hooks, John Larroquette, Mark Lenard, Christopher Lloyd, Cathie Shirriff, Stephen Liska, Carl Steven, Stephen Manley, Joe W. Davis, Vadia Potenza

.: Trama :.

E' il terzo film ispirato alla ormai nota serie Tv prodotta dalla NBC. Mentre il secondo film s'era concluso con la morte di Spock, il terzo inizia con il dolore dell'equipaggio dell'Enterprise per la perdita dell'amico vulcaniano. Ma Spock sarÓ morto per davvero? E se la sua anima si fosse trasferita nella mente del medico di bordo McCoy? E se il suo corpo si fosse reincarnato sul pianeta Genesis, il pianeta che sta vivendo in poche ore - quasi fosse un gigantesco organismo vivente - ci˛ che i pianeti normali fanno in millenni? Se tutto questo fosse vero, allora non resterebbe altro che recuperare Spock. E' quanto si propone di fare l'ammiraglio Kirk con il suo equipaggio, dopo aver rubato l'Enterprise destinata, nei piani della flotta spaziale, alla demolizione. E naturalmente l'impresa di Kirk - dopo scontri stellari con immancabili mostri alieni - sortirÓ l'effetto sperato.

.: ScreenShot :.








.: Mediainfo :.

General
Unique ID                                : 179082885780144148401706799352351337259 (0x86BA1BF62D8786AB91098F82BC84AB2B)
Complete name                            : I:\Sources\Star Trek X265\Star.Trek.III.The.Search.for.Spock.ITA.ENG.AC3.BDRip.1080p.X265_ZMachine.mkv
Format                                   : Matroska
Format version                           : Version 4 / Version 2
File size                                : 2.47 GiB
Duration                                 : 1h 45mn
Overall bit rate                         : 3 364 Kbps
Movie name                               : Star Trek: III - Alla Ricerca di Spock <ZMachine>
Encoded date                             : UTC 2014-05-23 15:08:34
Writing application                      : mkvmerge v6.9.1 ('Blue Panther') 64bit built on Apr 18 2014 18:23:38
Writing library                          : libebml v1.3.0 + libmatroska v1.4.1

Video
ID                                       : 1
Format                                   : HEVC
Format/Info                              : High Efficiency Video Coding
Codec ID                                 : V_MPEGH/ISO/HEVC
Duration                                 : 1h 45mn
Bit rate                                 : 2 401 Kbps
Width                                    : 1 920 pixels
Height                                   : 816 pixels
Display aspect ratio                     : 2.35:1
Frame rate mode                          : Constant
Frame rate                               : 23.976 fps
Bits/(Pixel*Frame)                       : 0.064
Stream size                              : 1.77 GiB (71%)
Title                                    : Video H.265 (Encoded by ZMachine)
Default                                  : Yes
Forced                                   : Yes

Audio #1
ID                                       : 2
Format                                   : AC-3
Format/Info                              : Audio Coding 3
Mode extension                           : CM (complete main)
Format settings, Endianness              : Big
Codec ID                                 : A_AC3
Duration                                 : 1h 45mn
Bit rate mode                            : Constant
Bit rate                                 : 448 Kbps
Channel(s)                               : 6 channels
Channel positions                        : Front: L C R, Side: L R, LFE
Sampling rate                            : 48.0 KHz
Bit depth                                : 16 bits
Compression mode                         : Lossy
Stream size                              : 337 MiB (13%)
Title                                    : Audio AC3
Language                                 : Italian
Default                                  : Yes
Forced                                   : No

Audio #2
ID                                       : 3
Format                                   : AC-3
Format/Info                              : Audio Coding 3
Mode extension                           : CM (complete main)
Format settings, Endianness              : Big
Codec ID                                 : A_AC3
Duration                                 : 1h 45mn
Bit rate mode                            : Constant
Bit rate                                 : 448 Kbps
Channel(s)                               : 6 channels
Channel positions                        : Front: L C R, Side: L R, LFE
Sampling rate                            : 48.0 KHz
Bit depth                                : 16 bits
Compression mode                         : Lossy
Stream size                              : 337 MiB (13%)
Title                                    : Audio AC3
Language                                 : English
Default                                  : No
Forced                                   : No

Text #1
ID                                       : 4
Format                                   : ASS
Codec ID                                 : S_TEXT/ASS
Codec ID/Info                            : Advanced Sub Station Alpha
Compression mode                         : Lossless
Title                                    : Sub Forced
Language                                 : Italian
Default                                  : Yes
Forced                                   : Yes

Text #2
ID                                       : 5
Format                                   : ASS
Codec ID                                 : S_TEXT/ASS
Codec ID/Info                            : Advanced Sub Station Alpha
Compression mode                         : Lossless
Title                                    : Sub Forced
Language                                 : English
Default                                  : No
Forced                                   : Yes

Text #3
ID                                       : 6
Format                                   : ASS
Codec ID                                 : S_TEXT/ASS
Codec ID/Info                            : Advanced Sub Station Alpha
Compression mode                         : Lossless
Title                                    : Sub
Language                                 : Italian
Default                                  : No
Forced                                   : No

Text #4
ID                                       : 7
Format                                   : ASS
Codec ID                                 : S_TEXT/ASS
Codec ID/Info                            : Advanced Sub Station Alpha
Compression mode                         : Lossless
Title                                    : Sub
Language                                 : English
Default                                  : No
Forced                                   : No

Menu
00:00:00.000                             : Genesis
00:11:06.290                             : A Sign of Life
00:22:36.897                             : Vulcan Mind Meld
00:31:33.725                             : Planet Forbidden
00:41:09.091                             : Stealing the Enterprise
00:47:22.965                             : The Vulcan Child
00:56:09.741                             : Klingon Bird of Prey
01:11:08.430                             : Enterprise Destruct Sequence
01:16:25.581                             : The Aging Planet
01:26:20.300                             : The Needs of the One
01:39:36.679                             : End Credits

.: Note :.



Info: Per scaricare devi usare un client come uTorrent, o Azureus
AnnounceURL
http://tracker.tntvillage.scambioetico.org:2710/announce
Hash 8478ff3bd154b1d7e9d358be25da7051b1994282
Peers seeds: 93 , leech: 113
Size 2.47 GB
Completato 741x
Aggiunto 29.05.14 - 14:05:51
Uploader   ZMachine
Votazione (Voti: 0)


Condividi questo bittorrent:


html/blog:


bbcode/forum:


Tramite bookmarks:



Aggiungi Commento