* Dettagli Torrent   globale  | Commenti (4) 


- Star Trek IV - Rotta Verso la Terra ITA ENG AC3 BDRip 1080p X265 ZMachine -



Download via torrent:
                 
Categoria bittorrent DVDrip
Descrizione
PER RIPRODURRE CORRETTAMENTE IL FILE USARE L'ULTIMA VERSIONE VLC o MPC-BE







Titolo originale: Star Trek IV - The Voyage Home
Nazionalità: USA
Anno: 1986                        
Genere: Fantascienza
Regia: Leonard Nimoy
Durata: 119 m

Cast:
William Shatner, Leonard Nimoy, DeForest Kelley, James Doohan, George Takei, Walter Koenig, Nichelle Nichols, Catherine Hicks, Mark Lenard, Robin Curtis, John Schuck, Brock Peters, Grace Lee Whitney, Majel Barrett, Jane Wyatt

.: Trama :.

Nel 23º secolo, per risolvere difficili problemi di energia e di ecologia del proprio Pianeta (e anche per riportare ad una normale condizione il capitano Spock) l'ammiraglio James T. Kirk ha assoluta necessità di catturare due balene, una specie ormai estinta. Inizia così un viaggio a ritroso nel tempo e nello spazio, che porta l'equipaggio dell'astronave ad atterrare indietro di 300 anni, nella California del 1986. L'obiettivo è l'acquario Sausalito ma, nel mettere in pratica il loro piano, Kirk e compagni si trovano contro Gillian Taylor, la scienziata incaricata della custodia degli animali. Dapprima incredula sulla missione da svolgere e sull'identità delle persone che si trova di fronte, Gillian si oppone in tutti i modi alla cattura dei mammiferi. A poco a poco, resasi conto che anche dall'acquario le balene saranno mandate via, si convince della necessità di agevolare l'azione di Kirk. Anzi al momento di ripartire, sale con l'equipaggio sull'astronave per andare a vivere una nuova vita con le sue balene nel 23º secolo.

.: ScreenShot :.








.: Mediainfo :.

General
Unique ID                                : 245516443893392858764222161026832864982 (0xB8B4BF42D279C17AAC127EC321FF16D6)
Complete name                            : I:\Sources\Star Trek X265\Star.Trek.IV.The.Voyage.Home.ITA.ENG.AC3.BDRip.1080p.X265_ZMachine.mkv
Format                                   : Matroska
Format version                           : Version 4 / Version 2
File size                                : 2.82 GiB
Duration                                 : 1h 58mn
Overall bit rate                         : 3 394 Kbps
Movie name                               : Star Trek: IV - Rotta Verso la Terra <ZMachine>
Encoded date                             : UTC 2014-05-23 20:40:02
Writing application                      : mkvmerge v6.9.1 ('Blue Panther') 64bit built on Apr 18 2014 18:23:38
Writing library                          : libebml v1.3.0 + libmatroska v1.4.1

Video
ID                                       : 1
Format                                   : HEVC
Format/Info                              : High Efficiency Video Coding
Codec ID                                 : V_MPEGH/ISO/HEVC
Duration                                 : 1h 58mn
Bit rate                                 : 2 430 Kbps
Width                                    : 1 920 pixels
Height                                   : 824 pixels
Display aspect ratio                     : 2.35:1
Frame rate mode                          : Constant
Frame rate                               : 23.976 fps
Bits/(Pixel*Frame)                       : 0.064
Stream size                              : 2.02 GiB (72%)
Title                                    : Video H.265 (Encoded by ZMachine)
Default                                  : Yes
Forced                                   : Yes

Audio #1
ID                                       : 2
Format                                   : AC-3
Format/Info                              : Audio Coding 3
Mode extension                           : CM (complete main)
Format settings, Endianness              : Big
Codec ID                                 : A_AC3
Duration                                 : 1h 58mn
Bit rate mode                            : Constant
Bit rate                                 : 448 Kbps
Channel(s)                               : 6 channels
Channel positions                        : Front: L C R, Side: L R, LFE
Sampling rate                            : 48.0 KHz
Bit depth                                : 16 bits
Compression mode                         : Lossy
Stream size                              : 381 MiB (13%)
Title                                    : Audio AC3
Language                                 : Italian
Default                                  : Yes
Forced                                   : No

Audio #2
ID                                       : 3
Format                                   : AC-3
Format/Info                              : Audio Coding 3
Mode extension                           : CM (complete main)
Format settings, Endianness              : Big
Codec ID                                 : A_AC3
Duration                                 : 1h 58mn
Bit rate mode                            : Constant
Bit rate                                 : 448 Kbps
Channel(s)                               : 6 channels
Channel positions                        : Front: L C R, Side: L R, LFE
Sampling rate                            : 48.0 KHz
Bit depth                                : 16 bits
Compression mode                         : Lossy
Stream size                              : 381 MiB (13%)
Title                                    : Audio AC3
Language                                 : English
Default                                  : No
Forced                                   : No

Text #1
ID                                       : 4
Format                                   : ASS
Codec ID                                 : S_TEXT/ASS
Codec ID/Info                            : Advanced Sub Station Alpha
Compression mode                         : Lossless
Title                                    : Sub
Language                                 : Italian
Default                                  : No
Forced                                   : No

Text #2
ID                                       : 5
Format                                   : ASS
Codec ID                                 : S_TEXT/ASS
Codec ID/Info                            : Advanced Sub Station Alpha
Compression mode                         : Lossless
Title                                    : Sub
Language                                 : English
Default                                  : No
Forced                                   : No

Menu
00:00:00.000                             : 1. Opening Credits
00:03:08.938                             : 2. Court-Martial
00:07:02.171                             : 3. Exile
00:13:36.023                             : 4. Heading Home
00:16:43.168                             : 5. Distress Calls
00:27:29.939                             : 6. Time Warp
00:36:06.747                             : 7. San Francisco
00:45:25.389                             : 8. George & Gracie
00:51:33.423                             : 9. Colorful Metaphors
00:58:01.769                             : 10. Professor Scott
01:02:57.648                             : 11. The Truth
01:12:17.666                             : 12. Spycatchers
01:17:38.654                             : 13. Unwelcome Guest
01:22:44.542                             : 14. Rescue
01:28:29.304                             : 15. Whale Hunt
01:37:17.081                             : 16. Crash Landing
01:48:14.279                             : 17. The Enterprise
01:55:00.727                             : 18. End Credits

.: Note :.



Info: Per scaricare devi usare un client come uTorrent, o Azureus
AnnounceURL
http://tracker.tntvillage.scambioetico.org:2710/announce
Hash cdba6d13f810184e2f1da84ef5d2fe092e1742c3
Peers seeds: 92 , leech: 128
Size 2.82 GB
Completato 776x
Aggiunto 29.05.14 - 14:05:28
Uploader   ZMachine
Votazione (Voti: 1)


Condividi questo bittorrent:


html/blog:


bbcode/forum:


Tramite bookmarks:



Aggiungi Commento
Ultimi commenti
  
Ciao sono sempre io,ti faccio una proposta, posta un film che vuoi tu in 265 e 264 poi vedi quali dei due ha piu`donload. (E`solo un mio parere) non te la prendere,ma non tutti hanno le capacita` e le possibilita`economiche adeguate per le nuove tecnologie.ciao.
30/05 08.57
  
Z machine sei veramente in gamba per quello che fai,tecnicamente impeccabile,io sono bullock 64, mi dispiace che queste tue realese  si trovano  anche nel web,ma sono postate da tanto tempo e non sono certo belle come le tue (tecnicamente). Mi dispiace solo che non le riesco a vedere,qualcosa hai postato in 264,le ho scaricate e sono ok!qualcosa in 264  potresti metterla?io e non solo io ti sarei grato ciao!
30/05 08.21
avatar   ZMachine   
Ovviamente release in x265 vLe sempre il solito discorso.. Se non ti garba ci sono diverse versioni in x264 se googli..
30/05 04.47
Tutti commenti (4)