* Dettagli Torrent   globale  | Commenti (0) 


- Star Trek VII Generazioni ITA ENG AC3 BDRip 1080p X265 ZMachine -



Download via torrent:
                 
Categoria bittorrent DVDrip
Descrizione
PER RIPRODURRE CORRETTAMENTE IL FILE USARE L'ULTIMA VERSIONE VLC o MPC-BE







.: Scheda del Film :.

Titolo originale: Star Trek: Generations
NazionalitÓ: USA
Anno: 1994                    
Genere: Fantascienza
Regia: David Carson
Durata: 117 m

Cast:
Malcolm McDowell, William Shatner, Patrick Stewart, Jonathan Frakes, Gwynyth Walsh

.: Trama :.

Ormai in pensione e in un viaggio-premio, il capitano Kirk finisce dentro un misterioso vortice di energia e dato per morto. Si trova, invece, nel Nexus, paradiso senza tempo in cui si realizzano i propri sogni, dal quale Ŕ richiamato 78 anni dopo dal capitano Picard, comandante dell'Enterprise della Next Generation, per combattere il malvagio Soran che vuole distruggere mezza Galassia. MorirÓ nella lotta. 7 film della serie (cinematografica), sarÓ ricordato, almeno dagli affezionati di Star Trek, come quello della morte di Kirk (W. Shatner) e del passaggio delle consegne a Patrick Stewart e agli altri nuovi interpreti. Nonostante i rimandi a Solaris di Stanislaw Lem e a Cronache marziane di Ray Bradbury, la sceneggiatura Ŕ una volta di pi¨ l'anello debole della catena. Seguito da Primo contatto.

.: ScreenShot :.








.: Mediainfo :.

General
Unique ID                                : 251765129830681823859187825281497910099 (0xBD6833438A83EE8A83FACC4049714B53)
Complete name                            : I:\Sources\Star Trek X265\Star.Trek.VII.Generations.ITA.ENG.AC3.BDRip.1080p.X265_ZMachine.mkv
Format                                   : Matroska
Format version                           : Version 4 / Version 2
File size                                : 2.77 GiB
Duration                                 : 1h 57mn
Overall bit rate                         : 3 364 Kbps
Movie name                               : Star Trek: VII - Generazioni <ZMachine>
Encoded date                             : UTC 2014-05-24 19:33:37
Writing application                      : mkvmerge v6.9.1 ('Blue Panther') 64bit built on Apr 18 2014 18:23:38
Writing library                          : libebml v1.3.0 + libmatroska v1.4.1

Video
ID                                       : 1
Format                                   : HEVC
Format/Info                              : High Efficiency Video Coding
Codec ID                                 : V_MPEGH/ISO/HEVC
Duration                                 : 1h 57mn
Bit rate                                 : 2 401 Kbps
Width                                    : 1 920 pixels
Height                                   : 808 pixels
Display aspect ratio                     : 2.40:1
Frame rate mode                          : Constant
Frame rate                               : 23.976 fps
Bits/(Pixel*Frame)                       : 0.065
Stream size                              : 1.98 GiB (71%)
Title                                    : Video H.265 (Encoded by ZMachine)
Default                                  : Yes
Forced                                   : Yes

Audio #1
ID                                       : 2
Format                                   : AC-3
Format/Info                              : Audio Coding 3
Mode extension                           : CM (complete main)
Format settings, Endianness              : Big
Codec ID                                 : A_AC3
Duration                                 : 1h 57mn
Bit rate mode                            : Constant
Bit rate                                 : 448 Kbps
Channel(s)                               : 6 channels
Channel positions                        : Front: L C R, Side: L R, LFE
Sampling rate                            : 48.0 KHz
Bit depth                                : 16 bits
Compression mode                         : Lossy
Stream size                              : 378 MiB (13%)
Title                                    : Audio AC3
Language                                 : Italian
Default                                  : Yes
Forced                                   : No

Audio #2
ID                                       : 3
Format                                   : AC-3
Format/Info                              : Audio Coding 3
Mode extension                           : CM (complete main)
Format settings, Endianness              : Big
Codec ID                                 : A_AC3
Duration                                 : 1h 57mn
Bit rate mode                            : Constant
Bit rate                                 : 448 Kbps
Channel(s)                               : 6 channels
Channel positions                        : Front: L C R, Side: L R, LFE
Sampling rate                            : 48.0 KHz
Bit depth                                : 16 bits
Compression mode                         : Lossy
Stream size                              : 378 MiB (13%)
Title                                    : Audio AC3
Language                                 : English
Default                                  : No
Forced                                   : No

Text #1
ID                                       : 4
Format                                   : ASS
Codec ID                                 : S_TEXT/ASS
Codec ID/Info                            : Advanced Sub Station Alpha
Compression mode                         : Lossless
Title                                    : Sub
Language                                 : Italian
Default                                  : No
Forced                                   : No

Text #2
ID                                       : 5
Format                                   : ASS
Codec ID                                 : S_TEXT/ASS
Codec ID/Info                            : Advanced Sub Station Alpha
Compression mode                         : Lossless
Title                                    : Sub
Language                                 : English
Default                                  : No
Forced                                   : No

Menu
00:00:00.000                             : 1. Main Titles
00:02:48.668                             : 2. Locutus
00:04:45.243                             : 3. The Neutral Zone - "Why Are We Out Here Chasing Comets?"
00:07:30.783                             : 4. Engaging the Borg
00:11:52.628                             : 5. Temporal Vortex - "We Must Follow Them Back"
00:13:54.917                             : 6. Earth, 2063
00:17:21.957                             : 7. The Phoenix
00:22:25.635                             : 8. Environmental Difficulties
00:24:24.838                             : 9. 39.1 Degrees Celsius
00:25:52.884                             : 10. Medical Emergency
00:27:08.752                             : 11. A Plan of Attack
00:28:10.063                             : 12. Blending In - "It's a Primitive Culture"
00:31:14.289                             : 13. Deck Sixteen - "Don't Let Them Touch You!"
00:37:50.935                             : 14. An Imperfect Being
00:39:16.354                             : 15. Viewing the Future
00:43:52.171                             : 16. Lily
00:46:13.604                             : 17. The Borg Queen
00:49:17.579                             : 18. Holodeck - "The Big Goodbye"
00:55:11.850                             : 19. Hero Worship
00:58:20.121                             : 20. Zero-G
01:01:31.729                             : 21. Tempted by Flesh
01:05:16.287                             : 22. The Interplexing Beacon
01:13:52.261                             : 23. Cochrane's Vision
01:16:24.079                             : 24. Captain Ahab - "The Line Must Be Drawn Here!"
01:23:20.704                             : 25. Autodestruct Sequence
01:25:36.548                             : 26. The Voyage of the Phoenix
01:28:45.153                             : 27. "Welcome Home Locutus"
01:33:33.774                             : 28. Breaking the Warp Barrier/Death of the Borg Queen
01:37:31.637                             : 29. 0.68 Seconds
01:39:59.827                             : 30. First Contact - April 5, 2063
01:45:34.911                             : 31. End Credits

.: Note :.



Info: Per scaricare devi usare un client come uTorrent, o Azureus
AnnounceURL
http://tracker.tntvillage.scambioetico.org:2710/announce
Hash 4039e1076a2bf63e36a042e431c3c8e4b3fe96b2
Peers seeds: 78 , leech: 128
Size 2.77 GB
Completato 664x
Aggiunto 01.06.14 - 07:06:27
Uploader   ZMachine
Votazione (Voti: 1)


Condividi questo bittorrent:


html/blog:


bbcode/forum:


Tramite bookmarks:



Aggiungi Commento