* Dettagli Torrent   globale  | Commenti (0) 


- Boardwalk Empire S04e09[Mux - XviD - Ita Eng Mp3 - Sub Ita Eng][TNT] -



Download via torrent:
                 
Categoria bittorrent SerieTv
Descrizione
Boardwalk Empire S04e09[Mux - XviD - Ita Eng Mp3 - Sub Ita Eng][TNT]


BOARDWALK EMPIRE
STAGIONE 4
HDTVMUX
ITA-ENG
Sub ITA-ENG
XviD - avi





.: Dati Serie :.


Nazione:USA
Anno: 2010
Genere: drammatico
Stagioni 4
Episodi: 48
Durata: 60 min circa
Lingua: ITA - ENG
Sottotitoli: ITA-ENG
Ideatore:Terence Winter
Cast:
Steve Buscemi: Enouch "Nucky" Thompson
Michael Pitt: James "Jimmy" Darmody
Kelly Macdonald: Margaret Schroeder
Michael Shannon: Nelson Van Alden
Dabney Coleman: Commodore Louis Kaestner
Shea Whigham: Elias "Eli" Thompson
Anthony Laciura: Eddie Kessel
Stephen Graham: Al Capone
Aleksa Palladino: Angela Darmody
Michael Stuhlbarg: Arnold Rothstein
Vincent Piazza: Lucky Luciano
Paz de la Huerta: Lucy Danziger
Mickey Doyle: Paul Sparks
Michael Kenneth Williams: Chalky White
Gretchen Mol: Gillian
Edoardo Ballerini: Ignatius D'Alessio


.: Trama :.

Boardwalk Empire is an American period drama series from premium cable channel HBO, set in Atlantic City, New Jersey, during the Prohibition era. It stars Steve Buscemi as Nucky Thompson. Primetime Emmy Award-winning screenwriter and producer Terence Winter created the show inspired by the book Boardwalk Empire: The Birth, High Times, and Corruption of Atlantic City by Nelson Johnson about historical criminal kingpin Enoch L. Johnson.[2]

The pilot episode, directed by Martin Scorsese, was produced at a cost of $18 million.[3] On September 1, 2009, HBO picked up the series for an additional 11 episodes.[4] The series premiered on September 19, 2010[5] and completed its fourth season on November 24, 2013. On September 26, 2013, HBO renewed Boardwalk Empire for a fifth season to air in 2014,[6] which will be its last.[7]

Boardwalk Empire has received widespread critical acclaim, particularly for its visual style and basis on historical figures, as well as for Buscemi's lead performance.[8] The series has received forty Primetime Emmy Award nominations, including two for Outstanding Drama Series, winning seventeen. The series has also won the Golden Globe Award for Best Television Series Drama in 2011 and two Screen Actors Guild Awards for Outstanding Performance by an Ensemble in a Drama Series in 2011 and 2012.

The fourth season of the HBO television series Boardwalk Empire premiered on September 8, 2013, and concluded on November 24, 2013, consisting of 12 episodes.[1] The series was created by Terence Winter and based on the book Boardwalk Empire: The Birth, High Times and Corruption of Atlantic City by Nelson Johnson. Set in Atlantic City, New Jersey, during the Prohibition era, the series stars Steve Buscemi as Enoch "Nucky" Thompson (based on the historical Enoch L. Johnson),[2] a political figure who rose to prominence and controlled Atlantic City, New Jersey, during the Prohibition period of the 1920s and early 1930s. The fourth season takes place in 1924.


.: Screenshot :.








.: Caratteristiche Tecniche :.

* * * MediaInspector for Mac - Version 2.0.1, build 900
* * * 2012 by Diego Massanti
* * * MediaInfo Lib by Jerome Martinez
* * * Raw File Report for [email protected]

General
Complete name                    : Bo4rdwalk.Emp1re.S04e01-02.ITA-ENG.HDTVMux.XviD-K@/[email protected]
Format                           : AVI
Format/Info                      : Audio Video Interleave
File size                        : 560 MiB
Duration                         : 1h 15mn
Overall bit rate                 : 1 043 Kbps

Video
ID                               : 0
Format                           : MPEG-4 Visual
Format profile                   : Advanced Simple@L5
Format settings, BVOP            : Yes
Format settings, QPel            : No
Format settings, GMC             : No warppoints
Format settings, Matrix          : Default (H.263)
Codec ID                         : XVID
Codec ID/Hint                    : XviD
Duration                         : 1h 0mn
Bit rate                         : 992 Kbps
Width                            : 640 pixels
Height                           : 360 pixels
Display aspect ratio             : 16:9
Frame rate                       : 23.976 fps
Color space                      : YUV
Chroma subsampling               : 4:2:0
Bit depth                        : 8 bits
Scan type                        : Progressive
Compression mode                 : Lossy
Bits/(Pixel*Frame)               : 0.180
Stream size                      : 427 MiB (76%)
Writing library                  : XviD 64

Audio #1
ID                               : 1
Format                           : MPEG Audio
Codec ID                         : 55
Codec ID/Hint                    : MP3
Duration                         : 1h 15mn
Bit rate                         : 128 Kbps
Channel(s)                       : 2 channels
Sampling rate                    : 48.0 KHz
Compression mode                 : Lossy
Stream size                      : 68.7 MiB (12%)
Alignment                        : Aligned on interleaves
Interleave, duration             : 24 ms (0.58 video frame)

Audio #2
ID                               : 2
Format                           : MPEG Audio
Codec ID                         : 55
Codec ID/Hint                    : MP3
Duration                         : 1h 0mn
Bit rate                         : 128 Kbps
Channel(s)                       : 2 channels
Sampling rate                    : 48.0 KHz
Compression mode                 : Lossy
Stream size                      : 55.1 MiB (10%)
Alignment                        : Aligned on interleaves
Interleave, duration             : 24 ms (0.58 video frame)
Info: Per scaricare devi usare un client come uTorrent, o Azureus
AnnounceURL
http://tracker.tntvillage.scambioetico.org:2710/announce
Hash 22278ee334a5de642d2ac4025e92cbb02e0aac4e
Peers seeds: 27 , leech: 16
Size 538.13 MB
Completato 1440x
Aggiunto 24.06.14 - 11:06:22
Uploader   kaimanov
Votazione (Voti: 0)


Condividi questo bittorrent:


html/blog:


bbcode/forum:


Tramite bookmarks:



Aggiungi Commento