* Dettagli Torrent   globale  | Commenti (0) 


- Now You See Me ITA ENG AC3 BDRip 1080p X265 ZMachine -



Download via torrent:
                 
Categoria bittorrent DVDrip
Descrizione
PER RIPRODURRE CORRETTAMENTE IL FILE USARE L'ULTIMA VERSIONE VLC o MPC-BE





.: Scheda del Film :.

Titolo originale: Now You See Me
NazionalitÓ: USA
Anno: 2013
Genere: Thriller
Regia: Louis Leterrier
Durata: 115 Min

Cast:
Mark Ruffalo, Woody Harrelson, Dave Franco, Morgan Freeman, Isla Fisher, Michael Caine, Jesse Eisenberg, MÚlanie Laurent, Elias Koteas, Michael Kelly, Common, Laura Cayouette, Joe Chrest
.: Trama :.

Una squadra dell'FBI Ŕ sulle tracce di un super-team formato dai pi¨ grandi illusionisti del mondo, i quali mettono a segno una serie di rapine in banca nel corso delle proprie esibizioni.

.: ScreenShot :.








.: Mediainfo :.

General
Unique ID                                : 216679351256684650232874139768791368643 (0xA302ECD2CD010E4EB9DF05B9E3BA03C3)
Complete name                            : I:\Sources\Videoteca\Vari X265\Now.You.See.Me.ITA.ENG.AC3.BDRip.1080p.X265_ZMachine.mkv
Format                                   : Matroska
Format version                           : Version 4 / Version 2
File size                                : 2.80 GiB
Duration                                 : 1h 55mn
Overall bit rate                         : 3 474 Kbps
Movie name                               : Now You See Me - I maghi del crimine <ZMachine>
Encoded date                             : UTC 2014-07-07 21:35:08
Writing application                      : mkvmerge v7.0.0 ('Where We Going') 64bit built on Jun  9 2014 15:16:27
Writing library                          : libebml v1.3.0 + libmatroska v1.4.1


Video
ID                                       : 1
Format                                   : HEVC
Format/Info                              : High Efficiency Video Coding
Codec ID                                 : V_MPEGH/ISO/HEVC
Duration                                 : 1h 55mn
Bit rate                                 : 2 509 Kbps
Width                                    : 1 920 pixels
Height                                   : 800 pixels
Display aspect ratio                     : 2.40:1
Frame rate mode                          : Constant
Frame rate                               : 23.976 fps
Bits/(Pixel*Frame)                       : 0.068
Stream size                              : 2.02 GiB (72%)
Title                                    : Video H.265 (Encoded by ZMachine)
Default                                  : Yes
Forced                                   : Yes

Audio #1
ID                                       : 2
Format                                   : AC-3
Format/Info                              : Audio Coding 3
Mode extension                           : CM (complete main)
Format settings, Endianness              : Big
Codec ID                                 : A_AC3
Duration                                 : 1h 55mn
Bit rate mode                            : Constant
Bit rate                                 : 448 Kbps
Channel(s)                               : 6 channels
Channel positions                        : Front: L C R, Side: L R, LFE
Sampling rate                            : 48.0 KHz
Bit depth                                : 16 bits
Compression mode                         : Lossy
Delay relative to video                  : 26ms
Stream size                              : 370 MiB (13%)
Title                                    : Audio AC3
Language                                 : Italian
Default                                  : Yes
Forced                                   : No

Audio #2
ID                                       : 3
Format                                   : AC-3
Format/Info                              : Audio Coding 3
Mode extension                           : CM (complete main)
Format settings, Endianness              : Big
Codec ID                                 : A_AC3
Duration                                 : 1h 55mn
Bit rate mode                            : Constant
Bit rate                                 : 448 Kbps
Channel(s)                               : 6 channels
Channel positions                        : Front: L C R, Side: L R, LFE
Sampling rate                            : 48.0 KHz
Bit depth                                : 16 bits
Compression mode                         : Lossy
Delay relative to video                  : 24ms
Stream size                              : 370 MiB (13%)
Title                                    : Audio AC3
Language                                 : English
Default                                  : No
Forced                                   : No

Text #1
ID                                       : 4
Format                                   : ASS
Codec ID                                 : S_TEXT/ASS
Codec ID/Info                            : Advanced Sub Station Alpha
Compression mode                         : Lossless
Title                                    : Sub Forced
Language                                 : Italian
Default                                  : Yes
Forced                                   : Yes

Text #2
ID                                       : 5
Format                                   : ASS
Codec ID                                 : S_TEXT/ASS
Codec ID/Info                            : Advanced Sub Station Alpha
Compression mode                         : Lossless
Title                                    : Sub
Language                                 : Italian
Default                                  : No
Forced                                   : No

Text #3
ID                                       : 6
Format                                   : ASS
Codec ID                                 : S_TEXT/ASS
Codec ID/Info                            : Advanced Sub Station Alpha
Compression mode                         : Lossless
Title                                    : Sub
Language                                 : English
Default                                  : No
Forced                                   : No

Menu
00:00:00.000                             : en:00:00:00.000
00:07:41.795                             : en:00:07:41.795
00:13:34.272                             : en:00:13:34.272
00:20:17.466                             : en:00:20:17.466
00:30:13.145                             : en:00:30:13.145
00:37:35.169                             : en:00:37:35.169
00:44:45.725                             : en:00:44:45.725
00:51:15.906                             : en:00:51:15.906
00:58:56.908                             : en:00:58:56.908
01:04:31.909                             : en:01:04:31.909
01:13:21.939                             : en:01:13:21.939
01:20:44.131                             : en:01:20:44.131
01:27:06.054                             : en:01:27:06.054
01:35:46.449                             : en:01:35:46.449
01:41:00.179                             : en:01:41:00.179
01:45:47.507                             : en:01:45:47.507





Info: Per scaricare devi usare un client come uTorrent, o Azureus
AnnounceURL
http://tracker.tntvillage.scambioetico.org:2710/announce
Hash 62a2a47eaccdfa14697469cde8a8cc1d3b54ac14
Peers seeds: 67 , leech: 22
Size 2.80 GB
Completato 1270x
Aggiunto 11.07.14 - 11:07:15
Uploader   ZMachine
Votazione (Voti: 0)


Condividi questo bittorrent:


html/blog:


bbcode/forum:


Tramite bookmarks:



Aggiungi Commento