* Dettagli Torrent   globale  | Commenti (0) 


- Pirates of the Caribbean At Worlds End ITA ENG AC3 BDRip 1080p X265 ZMachine -



Download via torrent:
                 
Categoria bittorrent DVDrip
Descrizione
PER RIPRODURRE CORRETTAMENTE IL FILE USARE L'ULTIMA VERSIONE VLC o MPC-BE







.: Scheda Film :.

Titolo originale: Pirates of the Caribbean: At Worlds End
Nazionalità: USA
Anno: 2007
Genere: Azione | Avventura
Regia: Gore Verbinski
Durata: 168 Min

Cast:
Orlando Bloom, Johnny Depp, Keira Knightley, Stellan Skarsgård, Chow Yun-Fat, Mackenzie Crook, Jack Davenport, Geoffrey Rush, Naomie Harris, Jonathan Pryce, Bill Nighy, Tom Hollander, Kevin McNally, Lee Arenberg, Keith Richards, David Schofield, Sergio Calderon, Vanessa Branch, Winston Ellis, David Bailie, Greg Ellis, Lauren Maher, Marco Khan, Hakeem Kae-Kazim, Marc Joseph, David Meunier, Tse Ho-Kwan, Peter Donald Badalamenti II, Portis Hershey

.: Trama :.

Sono tempi cupi per i Pirati: la loro epoca si avvia ormai al tramonto. Lord Cutler Beckett (Tom Hollander), della Compagnia delle Indie Orientali, è riuscito ad ottenere il controllo del terribile veliero fantasma l’Olandese Volante e del malvagio e vendicativo Capitano Davy Jones (Bill Nighy). L’Olandese Volante semina il terrore nei Sette Mari al comando dell’Ammiraglio Norrington (Jack Davenport) e, mettendo in mostra una potenza inarrestabile, distrugge senza pietà le navi pirata. Will Turner (Orlando Bloom), Elizabeth Swann (Keira Knightley) e Capitan Barbossa (Geoffrey Rush) s’imbarcano nel disperato tentativo di unirsi ai Nove Pirati Lord della Fratellanza, la loro unica speranza di sconfiggere Beckett, l’Olandese Volante e l’intera flotta. Ma uno dei Pirati Lord è scomparso. Si tratta del Capitano Jack Sparrow (Johnny Depp), il migliore e nello stesso tempo il peggiore tra i pirati, intrappolato nello scrigno di Davy Jones dopo il suo incontro con il mostruoso Kraken.

.: Screenshots :.








.: Mediainfo :.

General
Unique ID                                : 251698340871854397047807272943266208380 (0xBD5B56505D61482DA11F224E63A69A7C)
Complete name                            : I:\Sources\Videoteca\Pirati dei Caraibi X265\Pirates.of.the.Caribbean.At.Worlds.End.ITA.ENG.AC3.BDRip.1080p.X265_ZMachine.mkv
Format                                   : Matroska
Format version                           : Version 4 / Version 2
File size                                : 4.08 GiB
Duration                                 : 2h 48mn
Overall bit rate                         : 3 466 Kbps
Movie name                               : Pirati dei Caraibi - Ai Confini del Mondo <ZMachine>
Encoded date                             : UTC 2014-07-09 08:19:21
Writing application                      : mkvmerge v7.0.0 ('Where We Going') 64bit built on Jun  9 2014 15:16:27
Writing library                          : libebml v1.3.0 + libmatroska v1.4.1

Video
ID                                       : 1
Format                                   : HEVC
Format/Info                              : High Efficiency Video Coding
Codec ID                                 : V_MPEGH/ISO/HEVC
Duration                                 : 2h 48mn
Bit rate                                 : 2 501 Kbps
Width                                    : 1 920 pixels
Height                                   : 800 pixels
Display aspect ratio                     : 2.40:1
Frame rate mode                          : Constant
Frame rate                               : 23.976 fps
Bits/(Pixel*Frame)                       : 0.068
Stream size                              : 2.94 GiB (72%)
Title                                    : Video H.265 (Encoded by ZMachine)
Default                                  : Yes
Forced                                   : Yes

Audio #1
ID                                       : 2
Format                                   : AC-3
Format/Info                              : Audio Coding 3
Mode extension                           : CM (complete main)
Format settings, Endianness              : Big
Codec ID                                 : A_AC3
Duration                                 : 2h 48mn
Bit rate mode                            : Constant
Bit rate                                 : 448 Kbps
Channel(s)                               : 6 channels
Channel positions                        : Front: L C R, Side: L R, LFE
Sampling rate                            : 48.0 KHz
Bit depth                                : 16 bits
Compression mode                         : Lossy
Stream size                              : 540 MiB (13%)
Title                                    : Audio AC3
Language                                 : Italian
Default                                  : Yes
Forced                                   : No

Audio #2
ID                                       : 3
Format                                   : AC-3
Format/Info                              : Audio Coding 3
Mode extension                           : CM (complete main)
Format settings, Endianness              : Big
Codec ID                                 : A_AC3
Duration                                 : 2h 48mn
Bit rate mode                            : Constant
Bit rate                                 : 448 Kbps
Channel(s)                               : 6 channels
Channel positions                        : Front: L C R, Side: L R, LFE
Sampling rate                            : 48.0 KHz
Bit depth                                : 16 bits
Compression mode                         : Lossy
Stream size                              : 540 MiB (13%)
Title                                    : Audio AC3
Language                                 : English
Default                                  : No
Forced                                   : No

Text #1
ID                                       : 4
Format                                   : ASS
Codec ID                                 : S_TEXT/ASS
Codec ID/Info                            : Advanced Sub Station Alpha
Compression mode                         : Lossless
Title                                    : Sub Forced
Language                                 : Italian
Default                                  : Yes
Forced                                   : Yes

Text #2
ID                                       : 5
Format                                   : ASS
Codec ID                                 : S_TEXT/ASS
Codec ID/Info                            : Advanced Sub Station Alpha
Compression mode                         : Lossless
Title                                    : Sub
Language                                 : Italian
Default                                  : No
Forced                                   : No

Text #3
ID                                       : 6
Format                                   : ASS
Codec ID                                 : S_TEXT/ASS
Codec ID/Info                            : Advanced Sub Station Alpha
Compression mode                         : Lossless
Title                                    : Sub
Language                                 : English
Default                                  : No
Forced                                   : No

Menu
00:00:00.000                             : en:Suspended
00:04:33.940                             : en:A Dangerous Song
00:10:01.809                             : en:Welcome to Singapore
00:19:58.280                             : en:Cold
00:26:07.482                             : en:Captain's Commands
00:32:47.340                             : en:A Jack of All Trades
00:39:40.336                             : enavy Jones' Locker
00:46:04.761                             : en:Souls at Sea
00:51:31.963                             : en:Rock and Roll
00:58:03.730                             : en:The Last Pirate
01:04:50.678                             : en:An Old Friend
01:12:46.820                             : en:A New Captain
01:17:54.878                             : en:Bootstrap
01:24:46.539                             : en:Choosing a Side
01:28:41.357                             : en:Shipwreck Island
01:33:34.150                             : en:Brethren Court
01:38:05.671                             : en:Reunion
01:41:52.981                             : en:The Pirate Code
01:48:12.652                             : en:The Exchange
01:53:13.286                             : enieces of Eight
01:59:31.372                             : en:A Fool's Chance
02:05:52.211                             : en:Leverage
02:09:13.245                             : en:Time to Fly
02:13:53.525                             : en:Community Chest
02:23:19.257                             : en:Good Business
02:28:15.636                             : en:Turning Away
02:34:29.217                             : en:Egregious
02:38:48.560                             : en:Credits
02:48:30.100                             : en:End



Info: Per scaricare devi usare un client come uTorrent, o Azureus
AnnounceURL
http://tracker.tntvillage.scambioetico.org:2710/announce
Hash 02d3c8f8a428857bb633c487b9e814dd3153aba2
Peers seeds: 55 , leech: 96
Size 4.08 GB
Completato 779x
Aggiunto 12.07.14 - 10:07:42
Uploader   ZMachine
Votazione (Voti: 0)


Condividi questo bittorrent:


html/blog:


bbcode/forum:


Tramite bookmarks:



Aggiungi Commento