* Dettagli Torrent   globale  | Commenti (0) 


- Iron Man Rise of Technovore (2013) [XviD - Italian English Japan Ac3 5.1 - Sub Ita Eng] MIRCrew -



Download via torrent:
                 
Categoria bittorrent DVDrip
Descrizione
Iron Man Rise of Technovore (2013) [XviD - Italian English Japan Ac3 5.1 - Sub Ita Eng] MIRCrew



[center]

NO FOUND ONLY ORIGINAL RELEASE


Iron Man Rise of Technovore (2013)






 




   Iron Man: Rise of Technovore
   Giappone 2013
   Genere: Animazione
   durata 88'




**************






Il milionario Tony Shark sotto le vesti di Iron Man sventa un attacco da parte di un nuovo misterioso nemico ma, involontariamente, provoca la morte di alcuni innocenti spettatori, tra i quali il suo miglior amico James Rhodes. In carcere per essere interrogato, Iron Man si d alla fuga per rintracciare quale mente criminale si celi dietro l'attacco.......



The young and insane tech genius Ezekiel Stane has developed a new techno-organic armor that seemingly outclasses Iron Man. When Stane unleashes a terrorist attack during the launch of Tony Stark's newest satellite, Iron Man is blamed. Now he must evade S.H.I.E.L.D.'s man hunt and find a way to clear his name........






[img]http://s19.postimg.org/bqe1mbtcj/vlcsnap_2014_08_03_17h01m02s147.png/img]






[spoiler]
General
Complete name                            : Iron Man Rise of Technovore (2013).Ita.Eng.Jpn.sub.ita.engMIRCrew\Iron Man Rise of Technovore (2013).Ita.Eng.Jpn.MIRCrew.avi
Format                                   : AVI
Format/Info                              : Audio Video Interleave
File size                                : 1.76 GiB
Duration                                 : 1h 28mn
Overall bit rate                         : 2 862 Kbps
Writing application                      : VirtualDubMod 1.5.10.2 (build 2540/release)
Writing library                          : VirtualDubMod build 2540/release

Video
ID                                       : 0
Format                                   : MPEG-4 Visual
Format profile                           : Simple@L3
Format settings, BVOP                    : Yes
Format settings, QPel                    : No
Format settings, GMC                     : No warppoints
Format settings, Matrix                  : Default (H.263)
Codec ID                                 : XVID
Codec ID/Hint                            : XviD
Duration                                 : 1h 28mn
Bit rate                                 : 1 499 Kbps
Width                                    : 720 pixels
Height                                   : 400 pixels
Display aspect ratio                     : 16:9
Frame rate                               : 23.976 fps
Color space                              : YUV
Chroma subsampling                       : 4:2:0
Bit depth                                : 8 bits
Scan type                                : Progressive
Compression mode                         : Lossy
Bits/(Pixel*Frame)                       : 0.217
Stream size                              : 945 MiB (52%)

Audio #1
ID                                       : 1
Format                                   : AC-3
Format/Info                              : Audio Coding 3
Mode extension                           : CM (complete main)
Codec ID                                 : 2000
Duration                                 : 1h 28mn
Bit rate mode                            : Constant
Bit rate                                 : 448 Kbps
Channel(s)                               : 6 channels
Channel positions                        : Front: L C R, Side: L R, LFE
Sampling rate                            : 48.0 KHz
Bit depth                                : 16 bits
Compression mode                         : Lossy
Stream size                              : 282 MiB (16%)
Alignment                                : Split accross interleaves
Interleave, duration                     : 42 ms (1.00 video frame)
Interleave, preload duration             : 500 ms

Audio #2
ID                                       : 2
Format                                   : AC-3
Format/Info                              : Audio Coding 3
Mode extension                           : CM (complete main)
Codec ID                                 : 2000
Duration                                 : 1h 28mn
Bit rate mode                            : Constant
Bit rate                                 : 448 Kbps
Channel(s)                               : 6 channels
Channel positions                        : Front: L C R, Side: L R, LFE
Sampling rate                            : 48.0 KHz
Bit depth                                : 16 bits
Compression mode                         : Lossy
Stream size                              : 282 MiB (16%)
Alignment                                : Split accross interleaves
Interleave, duration                     : 42 ms (1.00 video frame)
Interleave, preload duration             : 500 ms

Audio #3
ID                                       : 3
Format                                   : AC-3
Format/Info                              : Audio Coding 3
Mode extension                           : CM (complete main)
Codec ID                                 : 2000
Duration                                 : 1h 28mn
Bit rate mode                            : Constant
Bit rate                                 : 448 Kbps
Channel(s)                               : 6 channels
Channel positions                        : Front: L C R, Side: L R, LFE
Sampling rate                            : 48.0 KHz
Bit depth                                : 16 bits
Compression mode                         : Lossy
Stream size                              : 282 MiB (16%)
Alignment                                : Split accross interleaves
Interleave, duration                     : 42 ms (1.00 video frame)
Interleave, preload duration             : 500 ms




[/spoiler]

[/center]
Info: Per scaricare devi usare un client come uTorrent, o Azureus
AnnounceURL
udp://open.demonii.com:1337/announce
Hash 5fa41a79fb4b23f4413a9ce6b42ef7428413105f
Peers seeds: 85 , leech: 55
Size 1.77 GB
Completato 1097x
Aggiunto 03.08.14 - 14:08:56
Uploader   robbyrs
Votazione (Voti: 0)


Condividi questo bittorrent:


html/blog:


bbcode/forum:


Tramite bookmarks:



Aggiungi Commento